<?xml version="1.0" standalone="no"?>
<!DOCTYPE svg PUBLIC "-//W3C//DTD SVG 1.1//EN" "http://www.w3.org/Graphics/SVG/1.1/DTD/svg11.dtd" >
<svg xmlns="http://www.w3.org/2000/svg">
<metadata>Generated by IcoMoon</metadata>
<defs>
<font id="notika-icon" horiz-adv-x="1024">
<font-face units-per-em="1024" ascent="960" descent="-64" />
<missing-glyph horiz-adv-x="1024" />
<glyph unicode="&#x20;" horiz-adv-x="512" d="" />
<glyph unicode="&#xe900;" glyph-name="alarm" d="M956.528 116.764c-86.761 86.221-130.737 188.267-130.737 303.309v167.452c0.801 127.665-85.048 212.34-158.813 246.058-21.132 9.663-42.915 17.11-65.052 22.64v10.687c0 51.33-41.761 93.091-93.091 93.091s-93.091-41.761-93.091-93.091v-12.307c-19.94-5.381-39.545-12.4-58.573-21.187-81.529-37.571-164.119-128.13-164.864-245.779v-167.564c0-118.933-42.003-220.979-124.835-303.309-4.934-4.915-6.721-12.158-4.636-18.804s7.727-11.562 14.597-12.753l176.705-30.515c32.917-5.679 63.227-10.333 92.067-14.168 32.507-63.674 96.312-104.522 166.018-104.522 69.725 0 133.548 40.886 166.018 104.597 28.728 3.817 58.889 8.453 91.62 14.113l176.687 30.515c6.87 1.173 12.493 6.107 14.597 12.753 2.104 6.628 0.317 13.871-4.617 18.786zM452.962 866.909c0 30.794 25.060 55.855 55.855 55.855s55.855-25.060 55.855-55.855v-3.389c-37.106 5.325-74.752 5.101-111.709-0.875v4.264zM512.223-26.764c-47.141 0-91.192 23.422-119.473 61.719 41.612-4.282 80.449-6.442 119.268-6.442 38.968 0 77.936 2.16 119.715 6.498-28.3-38.335-72.369-61.775-119.51-61.775zM763.532 91.406c-35.728-6.163-68.478-11.171-99.421-15.118-0.037 0-0.074 0-0.112 0-13.629-1.731-26.885-3.24-39.862-4.543-0.13-0.019-0.279-0.019-0.41-0.037-11.86-1.192-23.459-2.141-34.928-2.979-2.178-0.168-4.338-0.298-6.516-0.447-9.942-0.652-19.773-1.173-29.547-1.545-2.011-0.074-4.022-0.186-6.032-0.242-23.161-0.782-46.006-0.782-69.148-0.019-2.048 0.074-4.133 0.168-6.181 0.261-9.644 0.372-19.363 0.875-29.175 1.527-2.309 0.149-4.617 0.298-6.945 0.465-11.171 0.801-22.472 1.75-34.034 2.886-0.41 0.037-0.801 0.074-1.192 0.112-12.884 1.285-26.047 2.793-39.582 4.506-0.056 0-0.112 0-0.168 0-31.055 3.928-63.916 8.974-99.812 15.155l-142.634 24.65c74.156 84.787 111.709 186.889 111.709 304.035v167.452c0.633 101.19 72.387 179.423 143.192 212.080 21.057 9.7 42.896 16.943 65.108 22.025 0.186 0.037 0.391 0.019 0.577 0.056 45.875 10.314 94.711 10.78 141.126 1.266 0.242-0.056 0.484 0.056 0.726 0.019 24.278-5.064 48.184-12.735 71.215-23.254 68.682-31.409 137.7-109.121 137.048-212.098v-167.564c0-112.323 40.495-216.771 117.537-304.054l-142.541-24.595zM628.289 748.907c-72.145 32.973-160.489 33.010-232.15-0.037-40.867-18.842-110.182-73.97-110.741-161.122-0.056-10.277 8.211-18.655 18.506-18.73 0.037 0 0.074 0 0.112 0 10.221 0 18.562 8.248 18.618 18.506 0.428 68.459 56.208 112.361 89.088 127.535 62.017 28.616 138.631 28.542 201.058 0 9.346-4.282 20.406-0.168 24.688 9.179 4.282 9.365 0.168 20.406-9.179 24.669z" />
<glyph unicode="&#xe901;" glyph-name="arrow-right" d="M64 384v128h704v128l192-192-192-192v128z" />
<glyph unicode="&#xe902;" glyph-name="avable" d="M512 960c-282.782 0-512-229.218-512-512s229.218-512 512-512c282.782 0 512 229.218 512 512s-229.218 512-512 512zM512 16c-238.594 0-432 193.406-432 432s193.406 432 432 432 432-193.406 432-432-193.406-432-432-432zM672 448c0-88.376-71.624-160-160-160s-160 71.624-160 160c0 88.376 71.624 160 160 160s160-71.624 160-160z" />
<glyph unicode="&#xe903;" glyph-name="back" d="M738.376 960l-495.779-491.557v-40.886l495.779-491.557 43.026 40.886-470.073 471.114 469.524 471.114z" />
<glyph unicode="&#xe904;" glyph-name="calendar" d="M972.8 891.733h-119.467v51.2c0 9.438-7.629 17.067-17.067 17.067h-119.467c-9.438 0-17.067-7.629-17.067-17.067v-51.2h-375.467v51.2c0 9.438-7.629 17.067-17.067 17.067h-119.467c-9.438 0-17.067-7.629-17.067-17.067v-51.2h-119.467c-9.438 0-17.067-7.629-17.067-17.067v-921.6c0-9.438 7.629-17.067 17.067-17.067h921.6c9.438 0 17.067 7.629 17.067 17.067v921.6c0 9.438-7.629 17.067-17.067 17.067zM733.867 925.867h85.333v-102.4h-85.333v102.4zM204.8 925.867h85.333v-102.4h-85.333v102.4zM68.267 857.6h102.4v-51.2c0-9.438 7.629-17.067 17.067-17.067h119.467c9.438 0 17.067 7.629 17.067 17.067v51.2h375.467v-51.2c0-9.438 7.629-17.067 17.067-17.067h119.467c9.438 0 17.067 7.629 17.067 17.067v51.2h102.4v-153.6h-887.467v153.6zM68.267-29.867v699.733h887.467v-699.733h-887.467zM648.533 567.467h-460.8v-494.933h648.533v494.933h-187.733zM529.067 533.333h119.467v-119.467h-119.467v119.467zM648.533 260.267h-119.467v119.467h119.467v-119.467zM375.467 379.733h119.467v-119.467h-119.467v119.467zM375.467 533.333h119.467v-119.467h-119.467v119.467zM221.867 533.333h119.467v-119.467h-119.467v119.467zM221.867 379.733h119.467v-119.467h-119.467v119.467zM341.333 106.667h-119.467v119.467h119.467v-119.467zM494.933 106.667h-119.467v119.467h119.467v-119.467zM648.533 106.667h-119.467v119.467h119.467v-119.467zM802.133 106.667h-119.467v119.467h119.467v-119.467zM802.133 260.267h-119.467v119.467h119.467v-119.467zM802.133 533.333v-119.467h-119.467v119.467h119.467z" />
<glyph unicode="&#xe905;" glyph-name="chat" d="M204.8 669.867h256c9.438 0 17.067 7.646 17.067 17.067s-7.629 17.067-17.067 17.067h-256c-9.438 0-17.067-7.646-17.067-17.067s7.629-17.067 17.067-17.067zM785.067 567.467h-580.267c-9.438 0-17.067-7.646-17.067-17.067s7.629-17.067 17.067-17.067h580.267c9.438 0 17.067 7.646 17.067 17.067s-7.629 17.067-17.067 17.067zM785.067 430.933h-580.267c-9.438 0-17.067-7.646-17.067-17.067s7.629-17.067 17.067-17.067h580.267c9.438 0 17.067 7.646 17.067 17.067s-7.629 17.067-17.067 17.067zM921.6 925.867h-819.2c-55.501 0-102.4-46.899-102.4-102.4v-563.2c0-55.501 46.899-102.4 102.4-102.4h136.533v-170.667c0-7.049 4.335-13.38 10.923-15.923 1.997-0.768 4.079-1.143 6.144-1.143 4.71 0 9.335 1.963 12.629 5.581l165.581 182.153h487.39c55.501 0 102.4 46.899 102.4 102.4v563.2c0 55.501-46.899 102.4-102.4 102.4zM989.867 260.267c0-37.001-31.266-68.267-68.267-68.267h-457.745l61.082 71.014c6.144 7.134 5.342 17.92-1.792 24.064-7.151 6.11-17.92 5.325-24.064-1.809l-85.026-98.85-140.988-155.085v143.599c0 9.421-7.629 17.067-17.067 17.067h-153.6c-37.001 0-68.267 31.266-68.267 68.267v563.2c0 37.001 31.266 68.267 68.267 68.267h819.2c37.001 0 68.267-31.266 68.267-68.267v-563.2z" />
<glyph unicode="&#xe906;" glyph-name="checked" d="M970.607 802.67l-602.559-602.554-314.655 314.65-53.393-53.393 368.048-368.043 655.952 655.947z" />
<glyph unicode="&#xe907;" glyph-name="close" d="M511.998 960c-282.316 0-511.998-229.682-511.998-511.998s229.682-511.998 511.998-511.998c132.972 0 258.974 50.738 354.802 142.867 8.297 7.974 8.558 21.168 0.58 29.462-7.971 8.294-21.161 8.558-29.462 0.58-88.024-84.627-203.77-131.232-325.917-131.232-259.338-0.003-470.325 210.983-470.325 470.322s210.987 470.322 470.322 470.322 470.322-210.987 470.322-470.322c0-58.493-10.6-115.558-31.504-169.606-4.15-10.735 1.184-22.8 11.919-26.954 10.739-4.143 22.8 1.184 26.954 11.919 22.766 58.864 34.31 120.987 34.31 184.644 0 282.313-229.682 511.995-512.002 511.995zM582.147 403.849c-8.231 8.054-21.422 7.908-29.469-0.313-8.050-8.224-7.908-21.418 0.313-29.469l164.052-160.579c4.057-3.97 9.318-5.946 14.576-5.946 5.408 0 10.812 2.094 14.892 6.262 8.050 8.224 7.908 21.418-0.313 29.469l-164.052 160.576zM434.748 495.784c4.067-4.067 9.402-6.102 14.736-6.102s10.666 2.035 14.736 6.102c8.137 8.137 8.137 21.331 0 29.469l-157.106 157.106c-8.137 8.137-21.335 8.137-29.469 0-8.137-8.137-8.137-21.331 0-29.469l157.103-157.106zM746.355 682.359c-8.137 8.137-21.335 8.137-29.469 0l-439.245-439.245c-8.137-8.137-8.137-21.331 0-29.469 4.067-4.067 9.402-6.102 14.736-6.102s10.666 2.035 14.736 6.102l439.242 439.242c8.137 8.141 8.137 21.331 0 29.472z" />
<glyph unicode="&#xe908;" glyph-name="cloud" d="M869.99 606.822c-9.011 153.6-135.629 276.378-288.29 276.378-92.672 0-182.409-45.449-237.995-119.603-1.28 0.666-2.628 1.126-3.925 1.741-3.379 1.638-6.81 3.191-10.308 4.591-1.946 0.768-3.891 1.468-5.854 2.15-3.465 1.212-6.98 2.287-10.564 3.26-1.963 0.529-3.908 1.075-5.888 1.519-3.84 0.87-7.765 1.536-11.725 2.133-1.724 0.256-3.413 0.597-5.154 0.785-5.666 0.631-11.401 1.024-17.22 1.024-84.702 0-153.6-68.898-153.6-153.6 0-2.202 0.137-4.352 0.29-6.502-70.997-38.69-119.757-119.774-119.757-200.926 0-120.883 98.338-219.238 219.221-219.238h87.979c9.438 0 17.067 7.629 17.067 17.067s-7.629 17.067-17.067 17.067h-87.979c-102.059 0-185.088 83.029-185.088 185.105 0 70.895 46.165 144.486 109.79 174.985l9.677 4.625v10.752c0 2.048 0.137 4.13 0.256 6.229l0.188 3.157-0.222 3.311c-0.102 1.451-0.222 2.901-0.222 4.369 0 65.86 53.606 119.467 119.467 119.467 5.274 0 10.479-0.461 15.65-1.143 1.331-0.171 2.662-0.393 3.977-0.614 4.557-0.751 9.045-1.741 13.466-3.021 0.597-0.171 1.212-0.29 1.809-0.461 4.864-1.485 9.609-3.362 14.251-5.478 1.212-0.546 2.389-1.143 3.584-1.724 4.096-2.031 8.107-4.25 11.981-6.758 32.887-21.299 54.75-58.249 54.75-100.267 0-9.438 7.629-17.067 17.067-17.067s17.067 7.629 17.067 17.067c0 47.002-21.265 89.071-54.613 117.265 48.93 64 129.502 104.602 209.647 104.602 132.181 0 241.971-104.704 253.423-237.022-17.425 1.229-43.554 1.86-69.683-2.116-9.318-1.417-15.718-10.121-14.302-19.439 1.28-8.448 8.55-14.507 16.845-14.507 0.853 0 1.724 0.068 2.577 0.205 38.007 5.751 77.619 0.358 79.94 0.034 79.462-15.104 139.366-88.303 139.366-170.411 0-94.362-76.783-171.145-171.145-171.145h-67.789c-9.438 0-17.067-7.629-17.067-17.067s7.629-17.067 17.067-17.067h67.789c113.186 0 205.278 92.092 205.278 205.278 0 93.679-65.314 177.698-154.010 201.011zM653.534 178.466l-107.401-107.401v351.334c0 9.438-7.629 17.067-17.067 17.067s-17.067-7.629-17.067-17.067v-351.334l-107.401 107.401c-6.673 6.673-17.459 6.673-24.132 0s-6.673-17.459 0-24.132l136.516-136.516c1.57-1.587 3.465-2.833 5.564-3.703 2.082-0.87 4.301-1.314 6.519-1.314s4.437 0.444 6.519 1.314c2.099 0.87 3.994 2.116 5.564 3.703l136.516 136.516c6.673 6.673 6.673 17.459 0 24.132s-17.459 6.673-24.132 0z" />
<glyph unicode="&#xe909;" glyph-name="credit-card" d="M996.818 608.588l-324.252 324.248c-17.504 17.502-40.846 27.142-65.73 27.142-24.882 0-48.226-9.636-65.73-27.138l-513.964-513.966c-17.502-17.504-27.142-40.844-27.142-65.728s9.64-48.228 27.142-65.728l39.984-39.984c0.004-0.002 0.006-0.006 0.010-0.010s0.008-0.008 0.012-0.012l268.72-268.72h-37.208c-11.78 0-21.332-9.55-21.332-21.332 0-11.78 9.552-21.332 21.332-21.332h118.378c0.028 0 0.054-0.002 0.082-0.002s0.054 0.002 0.082 0.002l308.106-0.004c11.78 0 21.332 9.552 21.332 21.332 0 11.782-9.552 21.332-21.332 21.332l-226.928 0.004 498.44 498.44c36.24 36.244 36.24 95.216-0.002 131.456zM966.65 507.3l-513.968-513.968c-9.426-9.424-22.026-14.62-35.484-14.64h-0.162c-13.454 0.022-26.050 5.216-35.472 14.64l-269.174 269.176 493.59 493.594c8.33 8.33 8.33 21.838 0 30.168-8.332 8.33-21.836 8.33-30.17-0.002l-493.59-493.594-24.912 24.912c-9.442 9.442-14.642 22.070-14.642 35.558s5.2 26.118 14.644 35.562l513.964 513.964c9.444 9.442 22.074 14.642 35.562 14.642s26.118-5.2 35.562-14.644l115.406-115.404-493.596-493.6c-8.33-8.328-8.33-21.836 0-30.17 4.166-4.164 9.626-6.246 15.084-6.246s10.918 2.084 15.084 6.248l493.596 493.598 178.678-178.672c19.606-19.608 19.604-51.514 0-71.122zM525.602 343.872c-8.33 8.33-21.834 8.328-30.17 0l-167.868-167.866c-8.33-8.33-8.33-21.836 0-30.17 4.166-4.166 9.626-6.248 15.084-6.248s10.918 2.084 15.084 6.248l167.868 167.866c8.332 8.334 8.332 21.84 0.002 30.17zM456.75 184.518l-68.85-68.85c-8.33-8.33-8.33-21.838 0-30.17 4.166-4.164 9.626-6.248 15.084-6.248 5.462 0 10.918 2.084 15.084 6.248l68.85 68.85c8.33 8.33 8.33 21.838 0 30.17s-21.832 8.332-30.168 0zM520.108 247.87l-9.050-9.048c-8.332-8.33-8.332-21.836-0.002-30.17 4.164-4.166 9.626-6.25 15.084-6.25s10.918 2.084 15.082 6.25l9.050 9.048c8.332 8.33 8.332 21.836 0.002 30.168-8.326 8.33-21.836 8.332-30.166 0.002zM814.146 632.414c-4 4-9.426 6.248-15.084 6.248s-11.082-2.248-15.084-6.248l-90.51-90.508c-4-4.002-6.248-9.426-6.248-15.084s2.248-11.084 6.248-15.084l60.34-60.334c4.166-4.166 9.626-6.248 15.084-6.248 5.462 0 10.918 2.084 15.084 6.248l90.506 90.504c8.33 8.33 8.33 21.838 0 30.168l-60.336 60.338zM768.89 496.654l-30.17 30.168 60.34 60.338 30.168-30.17-60.338-60.336zM640.678 799.628c5.462 0 10.922 2.084 15.086 6.252l9.050 9.054c8.328 8.332 8.326 21.84-0.006 30.168-8.33 8.328-21.84 8.326-30.168-0.006l-9.050-9.054c-8.328-8.332-8.326-21.84 0.006-30.168 4.166-4.166 9.622-6.246 15.082-6.246zM214.43 243.886l-9.050-9.050c-8.33-8.328-8.33-21.836 0-30.17 4.166-4.164 9.626-6.246 15.084-6.246s10.918 2.082 15.084 6.246l9.050 9.050c8.33 8.332 8.33 21.84 0 30.17-8.332 8.332-21.836 8.332-30.168 0z" />
<glyph unicode="&#xe90a;" glyph-name="dollar" d="M235.998 171.844c-24.542 0-44.508-19.966-44.508-44.51 0-24.542 19.966-44.508 44.508-44.508s44.508 19.966 44.508 44.508-19.966 44.51-44.508 44.51zM235.998 112.826c-8 0-14.508 6.508-14.508 14.508s6.508 14.51 14.508 14.51 14.508-6.508 14.508-14.51c0-8-6.508-14.508-14.508-14.508zM954.388 796.598c-41.836 41.834-97.394 66.456-156.442 69.328-56.542 2.742-111.808-14.576-156.364-48.864l-11.234 1.288c-33.802 3.878-104.138 11.944-120.684 13.924-24.048 2.88-48.55-4.324-67.218-19.766l-143.36-118.6c-23.084-19.098-39.504-44.472-47.486-73.384-15.824-57.32-45.188-158.554-65.81-199.3l-62.918-62.918-4.148 4.148c-6.602 6.602-15.382 10.24-24.72 10.24s-18.118-3.636-24.72-10.24l-59.060-59.060c-13.63-13.63-13.63-35.808 0-49.438l15.666-15.666c5.724-5.724 15.006-5.724 20.73 0s5.724 15.006 0 20.73l-15.666 15.666c-1.438 1.438-1.652 3.118-1.652 3.99s0.214 2.552 1.652 3.99l59.060 59.060c1.438 1.438 3.118 1.652 3.99 1.652s2.552-0.214 3.99-1.652l14.504-14.504c0.002-0.004 0.006-0.006 0.008-0.010l199.422-199.424c1.438-1.438 1.652-3.118 1.652-3.99s-0.214-2.552-1.652-3.99l-59.060-59.060c-1.438-1.438-3.118-1.652-3.99-1.652s-2.552 0.214-3.99 1.652l-131.964 131.964c-5.724 5.724-15.006 5.724-20.73 0s-5.724-15.006 0-20.73l131.964-131.964c6.816-6.816 15.768-10.224 24.72-10.224s17.904 3.408 24.72 10.224l59.060 59.060c6.602 6.602 10.24 15.382 10.24 24.72s-3.636 18.118-10.24 24.72l-4.218 4.218 9.178 9.176c7.892 7.892 17.73 13.708 28.452 16.816 0.2 0.058 0.398 0.12 0.596 0.186l107.444 36.178c36.46 12.508 68.368 35.102 92.276 65.338l53.814 68.058 143.624 143.624c6.896-1.328 15.124-2.24 22.83-2.366v-11.662c0-4.514 4.514-8.652 10.91-8.652 5.642 0 11.286 4.138 11.286 8.652v12.79c40.628 5.642 68.466 31.224 68.466 77.496 0 51.162-35.738 67.714-68.466 79.752v76.366c26.334-1.88 36.114-13.918 45.142-13.918 11.286 0 16.552 14.294 16.552 21.442 0 18.434-36.114 26.334-61.696 27.086v10.158c0 4.514-5.642 8.652-11.286 8.652-6.396 0-10.91-4.138-10.91-8.652v-10.91c-35.738-3.762-71.476-22.572-71.476-69.972 0-48.152 37.62-61.696 71.476-73.734v-29.072c-10.318 12.262-27.21 19.356-48.944 20.524-49.698 2.702-118.356-24.992-156.342-62.98-24.224-24.224-51.734-51.738-66.898-66.912-4.702-4.704-11-7.294-17.73-7.294h-0.546c-10.11 0-24.084 10.936-27.918 21.46l-0.010 144.208 48.036 39.53 37.974 5.828c-7.456-33.8-7.492-68.978 0.036-102.978 1.514-6.836 7.574-11.492 14.298-11.492 1.048 0 2.114 0.114 3.182 0.35 7.904 1.75 12.892 9.576 11.142 17.48-8.042 36.318-6.258 74.162 5.156 109.486 0.046 0.124 0.070 0.256 0.112 0.38 0.016 0.046 0.040 0.088 0.054 0.134 10.214 31.326 27.288 59.106 50.748 82.566 4.982 4.98 10.276 9.766 15.742 14.23 0.118 0.088 0.224 0.19 0.34 0.282 0.024 0.018 0.048 0.034 0.072 0.052 39.756 32.298 89.958 48.712 141.368 46.212 51.758-2.516 100.462-24.1 137.138-60.776 39.354-39.354 61.026-91.674 61.026-147.328s-21.672-107.976-61.026-147.33c-51.886-51.888-128.324-72.744-199.478-54.426-7.832 2.020-15.83-2.7-17.848-10.542-2.018-7.84 2.702-15.83 10.542-17.848 19.46-5.010 39.46-7.514 59.462-7.514 20.42 0 40.842 2.61 60.682 7.83 40.482 10.65 77.612 32.010 107.37 61.77 44.886 44.904 69.608 104.588 69.608 168.072 0 63.482-24.722 123.166-69.612 168.056zM806.588 606.369c18.434-7.9 33.104-18.432 33.104-42.132 0-21.444-12.79-33.482-33.104-37.244v79.376zM752.793 692.141c0 19.562 15.046 28.966 36.114 31.6v-68.466c-19.938 7.522-36.114 15.422-36.114 36.866zM685.607 455.359l-13.772 13.77c-2.48 2.482-3.846 5.78-3.846 9.288s1.366 6.806 3.848 9.288l23.984 23.986c7.668 7.666 17.738 11.5 27.81 11.5 7.944 0 15.886-2.386 22.652-7.156l-60.676-60.676zM563.367 710.994l-55.496-8.518c-2.606-0.4-5.054-1.494-7.090-3.17l-56.492-46.488c-3.384-2.784-5.344-6.936-5.344-11.318l0.010-153.34c0-1.276 0.166-2.548 0.496-3.78 6.368-23.858 32.882-44.784 56.738-44.784h0.546c14.566 0 28.226 5.642 38.466 15.888 15.164 15.172 42.67 42.684 66.892 66.906 32.256 32.254 92.376 56.66 134.038 54.436 9.51-0.512 22.144-2.732 28.32-10.4 0.33-0.41 0.68-0.8 1.052-1.17 3.108-3.108 11.526-11.544 0.774-27.6-26.922 21.38-66.302 19.646-91.184-5.236l-23.984-23.984c-8.018-8.018-12.434-18.678-12.434-30.018 0-11.338 4.416-21.998 12.434-30.016l13.772-13.77-66.014-66.014c-0.402-0.402-0.78-0.828-1.134-1.272l-54.342-68.728c-20.416-25.818-47.662-45.11-78.716-55.764l-107.080-36.056c-15.334-4.504-29.402-12.85-40.704-24.152l-9.176-9.176-164.116 164.108 64.536 64.536c1.046 1.046 1.928 2.244 2.616 3.554 21.934 41.806 52.714 147.672 69.106 207.056 6.374 23.088 19.486 43.352 37.914 58.598l143.36 118.6c12.508 10.348 28.922 15.178 45.044 13.246 14.532-1.74 70.182-8.132 106.544-12.304-21.828-23.288-38.39-50.092-49.352-79.87z" />
<glyph unicode="&#xe90b;" glyph-name="dot" d="M511.999 703.999c-141.312 0-256.001-114.689-256.001-256.001s114.689-255.998 256.001-255.998 256.001 114.689 256.001 256.001-114.689 255.998-256.001 255.998zM511.999 960c-282.878 0-511.999-229.121-511.999-511.999s229.121-511.999 511.999-511.999 512.001 229.118 512.001 511.999-229.121 511.999-512.001 511.999zM511.999 38.401c-226.303 0-409.6 183.295-409.6 409.6s183.297 409.598 409.6 409.598 409.6-183.295 409.6-409.598-183.295-409.6-409.6-409.6z" />
<glyph unicode="&#xe90c;" glyph-name="down-arrow" d="M1024 448c0 282.31-229.69 512-512 512s-512-229.69-512-512 229.69-512 512-512 512 229.69 512 512zM51.158 448c0 254.121 206.721 460.842 460.842 460.842s460.842-206.721 460.842-460.842-206.721-460.842-460.842-460.842-460.842 206.721-460.842 460.842zM530.166 207.452l143.869 143.869c10.023 10.023 10.023 26.101 0 36.124s-26.101 10.023-36.124 0l-100.228-100.228v383.165c0 14.199-11.485 25.684-25.684 25.684s-25.684-11.485-25.684-25.684v-382.956l-100.228 100.228c-10.023 10.023-26.101 10.023-36.124 0s-10.023-26.101 0-36.124l143.869-143.869c5.011-5.011 11.485-7.517 18.166-7.517s13.155 2.297 18.166 7.308z" />
<glyph unicode="&#xe90d;" glyph-name="draft" d="M975.219 911.237c-65.054 65.017-170.864 65.017-235.918 0l-668.371-668.371c-0.315-0.315-0.5-0.704-0.778-1.038-0.389-0.445-0.723-0.927-1.075-1.409-0.982-1.372-1.742-2.836-2.317-4.43-0.167-0.482-0.408-0.908-0.537-1.39-0.056-0.185-0.167-0.371-0.222-0.556l-65.517-275.229c-0.297-1.242-0.371-2.502-0.408-3.744 0-0.241-0.074-0.463-0.074-0.704 0.019-2.113 0.482-4.17 1.205-6.153 0.167-0.463 0.352-0.871 0.556-1.316 0.908-1.983 2.039-3.892 3.633-5.486 1.761-1.761 3.837-3.114 6.079-4.040s4.633-1.39 7.024-1.39c1.427 0 2.873 0.167 4.281 0.5l275.229 65.517c0.5 0.111 0.945 0.389 1.427 0.556 0.63 0.204 1.223 0.445 1.835 0.723 1.334 0.612 2.576 1.372 3.725 2.28 0.445 0.352 0.908 0.612 1.334 1.001 0.148 0.148 0.334 0.222 0.482 0.371l668.389 668.389c65.054 65.054 65.054 170.883 0.019 235.918zM949.012 885.030c46.112-46.131 50.042-118.562 12.047-169.345l-181.392 181.392c50.802 37.995 123.232 34.065 169.345-12.047zM857.269 609.801l-183.486 183.486 26.207 26.207 183.486-183.486-26.207-26.207zM91.947 27.965c-7.247 7.247-18.96 7.247-26.207 0l-14.030-14.030 47.336 198.832 81.957 9.1-10.546-94.931c-0.074-0.704 0.185-1.353 0.185-2.039 0-0.704-0.259-1.334-0.185-2.039 0.074-0.612 0.389-1.112 0.519-1.705 0.222-1.075 0.537-2.057 0.927-3.058 0.482-1.205 1.056-2.298 1.761-3.355 0.575-0.853 1.149-1.612 1.853-2.354 0.89-0.945 1.853-1.742 2.91-2.484 0.834-0.575 1.631-1.112 2.558-1.557 1.223-0.575 2.502-0.908 3.837-1.223 0.704-0.167 1.279-0.556 2.002-0.649 0.667-0.074 1.334-0.111 2.020-0.111 0 0 0.019 0 0.019 0s0.019 0 0.019 0h0.019c0 0 0.019 0 0.019 0 0.667 0 1.353 0.037 2.020 0.111l94.931 10.546-9.1-81.957-198.851-47.336 14.030 14.030c7.228 7.228 7.228 18.96 0 26.207zM324.548 129.513l414.752 414.771c7.247 7.247 7.247 18.96 0 26.207s-18.96 7.247-26.207 0l-414.752-414.771-88.462-9.823 9.823 88.462 414.79 414.752c7.247 7.247 7.247 18.96 0 26.207s-18.96 7.247-26.207 0l-414.79-414.752-58.994-6.561 513.075 513.075 183.486-183.486-513.075-513.075 6.561 58.994zM909.683 662.215l-183.486 183.486 26.226 26.226 183.486-183.486-26.226-26.226z" />
<glyph unicode="&#xe90e;" glyph-name="edit" d="M710.336 882.33l-353.249-353.249c-2.807-2.807-4.815-6.307-5.81-10.15l-30.319-116.768c-1.982-7.644 0.226-15.763 5.81-21.35 4.232-4.228 9.916-6.523 15.748-6.523 1.867 0 3.746 0.234 5.598 0.713l116.768 30.322c3.842 0.999 7.347 3.007 10.15 5.81l353.241 353.241c0.007 0.007 0.015 0.011 0.019 0.015s0.011 0.015 0.015 0.019l71.114 71.114c8.702 8.698 8.702 22.801 0.004 31.496l-86.442 86.453c-4.18 4.18-9.841 6.526-15.752 6.526-5.906 0-11.571-2.346-15.748-6.526l-71.11-71.11c-0.007-0.007-0.015-0.011-0.019-0.015s-0.011-0.015-0.019-0.019zM447.825 446.923l-74.221-19.275 19.271 74.221 333.228 333.228 54.947-54.95-333.224-333.224zM797.231 906.227l54.947-54.95-39.629-39.629-54.947 54.95 39.629 39.629zM883.677 718.616c-12.299 0-22.274-9.975-22.274-22.274v-715.789h-698.805v851.68h412.305c12.299 0 22.274 9.975 22.274 22.274s-9.975 22.274-22.274 22.274h-434.579c-12.299 0-22.274-9.975-22.274-22.274v-896.232c0-12.299 9.975-22.274 22.274-22.274h743.354c12.299 0 22.274 9.975 22.274 22.274v738.067c0 12.299-9.971 22.274-22.274 22.274z" />
<glyph unicode="&#xe90f;" glyph-name="eye" d="M883.235 587.053c-205.648 205.648-540.229 205.648-745.877 0l-137.358-137.341 140.765-140.765c102.815-102.815 237.872-154.24 372.947-154.24s270.115 51.408 372.947 154.24l137.358 137.358-140.783 140.748zM862.184 333.405c-192.156-192.138-504.804-192.138-696.96 0l-116.307 116.307 112.899 112.899c192.156 192.138 504.804 192.138 696.96 0l116.307-116.307-112.899-112.899zM494.218 586.897c-66.768 0-121.081-54.314-121.081-121.081 0-9.548 7.749-17.297 17.297-17.297s17.297 7.749 17.297 17.297c0 47.689 38.798 86.486 86.486 86.486 9.548 0 17.297 7.749 17.297 17.297s-7.732 17.297-17.297 17.297zM511.516 673.384c-123.987 0-224.865-100.878-224.865-224.865s100.878-224.865 224.865-224.865 224.865 100.878 224.865 224.865-100.861 224.865-224.865 224.865zM511.516 258.249c-104.908 0-190.27 85.362-190.27 190.27s85.362 190.27 190.27 190.27 190.27-85.362 190.27-190.27-85.345-190.27-190.27-190.27z" />
<glyph unicode="&#xe910;" glyph-name="facebook" d="M592.618-64h-220.355v459.122h-121.39v210.854h121.386v118.402c0 108.699 68.006 235.623 259.75 235.623 67.595 0 117.218-6.335 119.291-6.608l20.345-2.645-4.899-197.323-22.418 0.206c-0.046 0-50.42 0.479-105.37 0.479-40.895 0-46.318-10.092-46.318-50.236v-97.944h180.484l-10-210.854h-170.463v-459.076h-0.043zM417.802-18.433h129.224v459.097h172.558l5.697 119.745h-178.255v143.511c0 47.389 10.911 95.802 91.882 95.802 32.536 0 63.451-0.16 83.338-0.319l2.758 110.929c-20.118 1.801-53.586 4.102-93.045 4.102-157.907 0-214.183-98.171-214.183-190.056v-163.968h-121.383v-119.745h121.386v-459.097h0.021z" />
<glyph unicode="&#xe911;" glyph-name="file" d="M452.693 780.8l-85.504 119.467h-367.189v-904.533h1024v785.067h-571.307zM989.867 746.667v-85.333h-451.635l-61.082 85.333h512.717zM34.133 29.867v836.267h315.477l85.333-119.467h0.205l80.043-111.804c3.328-4.642 8.567-7.117 13.875-7.134v-0.529h460.8v-597.333h-955.733zM614.4 456.533c0 56.474-45.926 102.4-102.4 102.4s-102.4-45.926-102.4-102.4v-68.267h-68.267v-273.067h341.333v273.067h-68.267v68.267zM443.733 456.533c0 37.649 30.618 68.267 68.267 68.267s68.267-30.618 68.267-68.267v-68.267h-136.533v68.267zM648.533 354.133v-204.8h-273.067v204.8h273.067zM494.933 202.957v-19.49c0-9.438 7.629-17.067 17.067-17.067s17.067 7.629 17.067 17.067v19.49c29.372 7.629 51.2 34.116 51.2 65.843 0 37.649-30.618 68.267-68.267 68.267s-68.267-30.618-68.267-68.267c0-31.727 21.828-58.214 51.2-65.843zM512 302.933c18.825 0 34.133-15.309 34.133-34.133s-15.309-34.133-34.133-34.133-34.133 15.309-34.133 34.133 15.309 34.133 34.133 34.133z" />
<glyph unicode="&#xe912;" glyph-name="finance" d="M808.534 329.18c-20.096 41.898-91.99 100.054-161.45 156.246-38.742 31.318-75.35 60.928-98.688 84.266-5.846 5.888-14.592 7.766-22.314 4.992-14.378-5.206-23.254-9.216-30.25-12.33-10.666-4.778-14.25-6.4-28.63-7.85-6.358-0.64-12.074-4.054-15.616-9.344-30.166-45.098-61.398-41.258-82.262-34.262-6.656 2.218-7.85 5.078-8.49 7.808-4.48 18.73 18.006 62.336 47.146 91.478 69.334 69.376 105.088 86.742 180.608 52.992 85.674-38.314 171.52-68.31 172.374-68.608 11.222-3.882 23.296 2.006 27.178 13.142 3.84 11.136-2.006 23.296-13.142 27.178-0.854 0.298-84.992 29.696-168.96 67.286-97.834 43.734-151.51 14.934-228.182-61.782-29.184-29.184-68.822-88.234-58.582-131.542 4.394-18.432 17.366-32.086 36.65-38.442 48.342-15.958 92.458-0.682 125.312 42.922 13.568 2.090 20.95 5.162 32.042 10.154 4.010 1.792 8.704 3.882 14.934 6.4 24.406-22.912 57.344-49.578 92.032-77.61 62.72-50.73 133.846-108.246 149.846-141.526 7.894-16.426-0.598-27.136-6.358-32.042-8.448-7.254-20.010-9.558-26.282-5.162-6.912 4.736-15.914 5.034-23.040 0.768-7.168-4.266-11.178-12.33-10.282-20.608 1.45-13.568-10.966-21.334-16.342-24.022-13.654-6.912-27.904-5.718-33.238-0.768-5.974 5.546-14.55 7.168-22.144 4.352-7.594-2.858-12.886-9.856-13.654-17.962-1.28-13.994-11.648-27.434-25.174-32.682-6.528-2.474-16-3.968-24.49 3.798-5.29 4.778-12.63 6.614-19.498 4.95-6.954-1.706-12.544-6.742-14.976-13.44-0.81-2.134-2.646-7.254-22.614-7.254-14.208 0-39.766 9.6-52.266 17.878-14.976 9.856-108.886 79.914-189.994 147.84-11.392 9.6-31.104 30.166-48.512 48.342-15.446 16.128-29.568 30.762-36.822 36.906-9.088 7.68-22.528 6.528-30.080-2.518-7.594-9.002-6.486-22.486 2.518-30.080 6.614-5.59 19.414-19.114 33.536-33.834 19.030-19.882 38.698-40.448 51.926-51.542 79.446-66.518 174.934-138.326 193.962-150.826 15.702-10.326 49.536-24.832 75.734-24.832 21.034 0 37.206 4.822 48.426 14.25 15.018-5.846 32.086-5.888 48.512 0.512 19.414 7.51 35.37 22.656 44.416 41.002 16.81-3.584 36.054-1.066 53.546 7.722 17.11 8.618 29.482 21.802 35.626 37.206 16.982-0.896 34.474 5.12 48.938 17.536 24.494 20.948 31.234 53.544 17.070 82.942zM426.666 682.674h-192c-11.776 0-21.334-9.558-21.334-21.334s9.558-21.334 21.334-21.334h192c11.776 0 21.334 9.558 21.334 21.334s-9.558 21.334-21.334 21.334zM871.040 374.578c-6.614 9.77-19.84 12.458-29.61 5.802l-62.378-41.898c-9.77-6.57-12.374-19.84-5.802-29.61 4.138-6.102 10.88-9.43 17.75-9.43 4.054 0 8.192 1.152 11.862 3.626l62.378 41.898c9.768 6.572 12.37 19.84 5.8 29.612zM738.602 272.774c-15.274 12.032-83.584 81.962-125.824 125.994-8.15 8.534-21.674 8.832-30.166 0.64-8.534-8.15-8.79-21.674-0.64-30.166 10.966-11.434 107.69-112.256 130.176-130.006 3.882-3.072 8.576-4.566 13.184-4.566 6.272 0 12.544 2.816 16.81 8.15 7.298 9.218 5.72 22.658-3.54 29.954zM653.354 229.98c-25.558 20.438-89.77 88.662-104.278 104.448-8.022 8.704-21.462 9.216-30.166 1.28-8.662-7.978-9.258-21.504-1.28-30.166 0.768-0.81 77.398-83.542 109.056-108.886 3.926-3.114 8.662-4.65 13.312-4.65 6.23 0 12.458 2.774 16.682 7.978 7.342 9.218 5.848 22.658-3.326 29.996zM568.448 187.014c-30.422 25.642-92.672 91.904-104.832 104.918-8.064 8.618-21.59 9.088-30.166 1.024-8.618-8.064-9.046-21.546-1.024-30.166 17.494-18.73 77.056-81.878 108.502-108.416 4.010-3.37 8.874-5.034 13.738-5.034 6.058 0 12.118 2.602 16.342 7.594 7.594 9.046 6.442 22.486-2.56 30.080zM249.344 719.494c-36.566 34.646-182.784 45.868-226.73 48.47-6.058 0.298-11.648-1.706-15.914-5.76-4.268-4.010-6.7-9.642-6.7-15.53v-384c0-11.776 9.558-21.334 21.334-21.334h128c9.216 0 17.408 5.93 20.266 14.72 3.114 9.558 76.63 235.178 86.314 346.112 0.556 6.486-1.834 12.886-6.57 17.322zM133.76 384.006h-91.094v339.798c68.566-5.418 142.55-17.194 169.43-30.25-11.306-93.44-62.464-259.456-78.336-309.548zM1002.666 725.34c-167.51 0-260.438-42.88-264.32-44.672-5.546-2.602-9.686-7.424-11.392-13.27s-0.854-12.118 2.346-17.322c26.368-42.454 108.928-278.23 124.8-335.744 2.56-9.258 10.966-15.658 20.566-15.658h128c11.776 0 21.334 9.558 21.334 21.334v384c0 11.818-9.558 21.332-21.334 21.332zM981.334 341.34h-90.71c-20.224 65.878-79.958 237.654-113.28 308.65 32.554 11.050 102.486 30.038 203.99 32.426v-341.076z" />
<glyph unicode="&#xe913;" glyph-name="flag" d="M876.732 906.308c-7.834 3.157-193.86 75.981-338.603-0.768-114.688-60.877-316.006-15.206-367.462-1.997v39.39c0 9.438-7.629 17.067-17.067 17.067s-17.067-7.629-17.067-17.067v-51.2c0-0.239 0.119-0.444 0.137-0.683 0-0.205-0.137-0.375-0.137-0.58v-937.404c0-9.438 7.629-17.067 17.067-17.067s17.067 7.629 17.067 17.067v403.2c38.793-9.677 123.341-27.853 211.081-27.853 60.706 0 122.88 8.721 172.39 34.97 130.594 69.308 308.156-0.068 309.931-0.768 5.274-2.116 11.213-1.468 15.906 1.741 4.676 3.157 7.492 8.448 7.492 14.114v512c0 6.98-4.25 13.244-10.735 15.838zM853.333 402.517c-55.637 17.715-198.758 52.838-315.204-8.96-114.671-60.86-315.921-15.223-367.462-2.014v476.723c65.758-16.401 262.502-57.054 383.471 7.117 112.060 59.443 258.697 16.811 299.196 3.089v-475.955z" />
<glyph unicode="&#xe914;" glyph-name="house" d="M1013.104 324.134c-19.478 28.624-58.702 36.2-87.414 16.904l-130.68-87.456-0.38 272.22 45.4-42.53c9.654-9.042 22.242-14.018 35.458-14.018 0.024 0 0.052 0 0.078 0 14.268 0.020 28.044 6 37.796 16.41 9.474 10.114 14.444 23.31 13.992 37.162s-6.272 26.698-16.386 36.172l-86.070 80.628c-5.892 5.52-15.142 5.218-20.66-0.674s-5.216-15.14 0.674-20.66l86.070-80.628c4.416-4.136 6.956-9.744 7.154-15.79 0.196-6.046-1.972-11.808-6.11-16.222-4.32-4.612-10.18-7.156-16.504-7.164-0.012 0-0.022 0-0.034 0-5.766 0-11.26 2.172-15.474 6.12-0.002 0.002-0.002 0.002-0.002 0.002l-341.764 320.158c-5.632 5.274-14.396 5.266-20.014-0.028l-340.876-321.116c-4.402-4.148-10.158-6.32-16.206-6.152-6.048 0.18-11.662 2.706-15.81 7.112-4.148 4.402-6.334 10.158-6.152 16.204 0.18 6.048 2.706 11.662 7.108 15.81l366.354 345.116c8.684 8.182 22.308 8.202 31.014 0.042l214.334-200.784c5.89-5.518 15.14-5.218 20.66 0.674 5.518 5.892 5.216 15.14-0.674 20.66l-214.332 200.784c-19.946 18.688-51.152 18.646-71.046-0.098l-117.278-110.48-0.032 19.706c-0.008 6.212-2.436 12.048-6.834 16.432-4.39 4.378-10.218 6.788-16.418 6.788-0.012 0-0.022 0-0.034 0l-83.894-0.118c-6.212-0.008-12.046-2.436-16.432-6.834-4.384-4.398-6.796-10.24-6.786-16.454l0.232-142.174-118.878-111.986c-10.088-9.502-15.87-22.364-16.284-36.216s4.592-27.036 14.094-37.12c9.5-10.088 22.362-15.872 36.216-16.286 0.53-0.016 1.060-0.024 1.59-0.024 13.27 0 25.836 4.98 35.534 14.12l45.298 42.672 0.18-128.582c-14.656 2.134-29.484 3.254-44.38 3.254h-25.010v8.764c0 29.422-23.938 53.36-53.36 53.36h-46.772c-29.422 0.002-53.36-23.934-53.36-53.358v-229.036c0-8.072 6.544-14.616 14.616-14.616s14.616 6.544 14.616 14.616v229.036c0 13.304 10.824 24.128 24.128 24.128h46.77c13.304 0 24.128-10.824 24.128-24.128v-346.122c0-13.304-10.824-24.128-24.128-24.128h-46.77c-13.304 0-24.128 10.824-24.128 24.128v25.576c0 8.072-6.544 14.616-14.616 14.616s-14.616-6.544-14.616-14.616v-25.576c0-29.422 23.938-53.36 53.36-53.36h46.77c29.422 0 53.36 23.936 53.36 53.36v1.986l214.048-81.056c0.396-0.15 0.798-0.282 1.206-0.396 9.306-2.628 18.608-3.946 27.792-3.946 4.968 0 9.902 0.386 14.786 1.158l314.562 45.344c0.074 0.010 0.146 0.022 0.22 0.034 26.744 4.27 51.974 15.576 72.96 32.692 0.182 0.148 0.362 0.302 0.536 0.46l203.222 182.776c23.666 21.010 28.084 56.584 10.282 82.748zM326.074 806.196l0.068-41.18-71.824-67.66-0.178 108.742 71.934 0.098zM508.282 794.048l257.076-240.824 0.446-319.186-41.382-27.696-43.822 2.458-1.158 11.64c-4.078 40.996-34.342 73.974-74.36 81.844l-0.264 189.89c-0.020 14.572-11.884 26.414-26.454 26.414-0.012 0-0.022 0-0.036 0l-139.308-0.196c-7.066-0.010-13.706-2.77-18.694-7.774-4.99-5.002-7.732-11.65-7.722-18.714l0.232-165.562c-27.594 6.308-53.942 16.726-78.576 31.136-3.074 1.798-6.178 3.534-9.308 5.222-1.22 0.658-2.46 1.276-3.69 1.918-1.904 0.994-3.804 1.994-5.728 2.948-1.532 0.76-3.082 1.48-4.626 2.214-1.638 0.778-3.274 1.564-4.924 2.314-1.68 0.762-3.374 1.488-5.066 2.22-1.546 0.668-3.092 1.34-4.648 1.982-1.74 0.718-3.49 1.408-5.242 2.094-1.554 0.608-3.11 1.212-4.672 1.796-1.734 0.648-3.476 1.274-5.222 1.888-1.638 0.578-3.278 1.142-4.926 1.692-1.672 0.558-3.348 1.104-5.032 1.634-1.794 0.566-3.596 1.106-5.4 1.64-1.55 0.456-3.098 0.912-4.656 1.344-2.034 0.566-4.078 1.096-6.124 1.62-0.958 0.246-1.91 0.524-2.874 0.762l-0.226 161.756 256.386 241.526zM575.846 305.942l-133.768 15.4-0.236 167.822 133.748 0.188 0.256-183.41zM983.346 263.18l-203.022-182.596c-16.918-13.718-37.212-22.792-58.722-26.244l-314.426-45.324c-0.066-0.010-0.13-0.020-0.196-0.030l-0.218-0.034c-9.526-1.508-19.446-0.872-29.488 1.884l-223.782 84.744v274.88h25.010c21.29 0 42.436-2.458 63.028-7.232 0.766-0.178 1.53-0.36 2.294-0.544 2.53-0.61 5.054-1.238 7.566-1.918 0.22-0.060 0.438-0.124 0.658-0.184 2.518-0.688 5.026-1.414 7.526-2.172 0.448-0.136 0.898-0.27 1.344-0.408 2.66-0.822 5.308-1.68 7.942-2.58 0.272-0.094 0.542-0.19 0.814-0.284 5.486-1.894 10.918-3.96 16.282-6.196 0.292-0.122 0.584-0.244 0.876-0.368 2.674-1.124 5.332-2.286 7.972-3.494 0.070-0.032 0.142-0.066 0.212-0.1 2.552-1.172 5.086-2.388 7.604-3.638 0.296-0.146 0.594-0.29 0.89-0.438 2.46-1.23 4.9-2.504 7.326-3.808 0.458-0.246 0.914-0.498 1.372-0.746 2.448-1.334 4.882-2.694 7.292-4.104 34.782-20.346 72.646-33.524 112.542-39.17 0.126-0.018 0.25-0.034 0.376-0.048l163.762-18.854c0.906-0.13 1.806-0.28 2.7-0.448 24.108-4.528 43.136-22.342 49.502-45.54 0.944-3.436 1.608-6.992 1.972-10.638l0.65-6.54-306.92 26.89c-8.036 0.702-15.132-5.244-15.836-13.284-0.706-8.042 5.244-15.132 13.284-15.836l324.484-28.43c0.078-0.006 0.154-0.004 0.23-0.010s0.15-0.018 0.228-0.024l61.194-3.434c0.274-0.016 0.546-0.022 0.818-0.022 0.29 0 0.576 0.046 0.864 0.064 0.326 0.020 0.652 0.032 0.976 0.072 0.436 0.056 0.862 0.15 1.29 0.244 0.306 0.068 0.614 0.118 0.914 0.206 0.468 0.134 0.918 0.316 1.372 0.498 0.244 0.098 0.496 0.172 0.736 0.284 0.682 0.316 1.346 0.68 1.978 1.104l51.944 34.762c0.002 0.002 0.004 0.004 0.006 0.006l153.404 102.664c15.434 10.374 36.502 6.304 46.964-9.072 9.564-14.052 7.19-33.162-5.588-44.51z" />
<glyph unicode="&#xe915;" glyph-name="ip-locator" d="M512.019 960c-148.664 0-269.613-120.948-269.613-269.576 0-143.784 249.753-709.569 260.388-733.62l9.225-20.804 9.209 20.804c10.614 24.051 260.367 589.836 260.367 733.62 0.016 148.648-120.911 269.576-269.576 269.576zM512.019-13.92c-46.149 105.968-249.413 580.001-249.413 704.35 0 137.52 111.872 249.434 249.413 249.434s249.413-111.909 249.413-249.434c0.021-124.349-203.264-598.381-249.413-704.35zM434.127 781.418h23.902v-185.17h-23.902v185.17zM545.697 782.824c-19.287 0-34.379-1.671-45.921-3.57v-183.006h23.902v74.168c5.522-1.369 12.094-1.613 19.25-1.613 23.35 0 43.985 6.832 56.573 20.311 9.357 9.606 14.296 22.799 14.296 39.545 0 16.497-6.015 29.976-16.173 38.765-10.975 9.893-28.326 15.399-51.926 15.399zM543.474 688.016c-7.994 0-14.582 0.53-19.802 1.936v71.988c4.159 1.119 12.094 1.936 22.534 1.936 26.369 0 43.72-11.829 43.72-36.262 0.005-25.589-17.574-39.598-46.452-39.598zM512.003 859.251c-93.572 0-169.697-76.125-169.697-169.739s76.125-169.718 169.697-169.718c93.63 0 169.776 76.125 169.776 169.718-0.005 93.614-76.146 169.739-169.776 169.739zM512.003 539.941c-82.427 0-149.54 67.107-149.54 149.577s67.107 149.577 149.54 149.577c82.469 0 149.593-67.107 149.593-149.577s-67.129-149.577-149.593-149.577z" />
<glyph unicode="&#xe916;" glyph-name="left-arrow" d="M334.018 797.137c14.436 14.436 37.164 14.436 51.6 0 13.949-13.949 13.949-37.164 0-51.080l-261.641-261.641h863.38c20.126 0 36.643-15.997 36.643-36.123s-16.517-36.643-36.643-36.643h-863.38l261.641-261.153c13.949-14.436 13.949-37.684 0-51.6-14.436-14.436-37.164-14.436-51.6 0l-323.581 323.581c-13.949 13.949-13.949 37.164 0 51.080l323.581 323.581z" />
<glyph unicode="&#xe917;" glyph-name="mail" d="M829.086 249.751c-4.061 0-8.123 1.486-11.293 4.491l-189.994 178.239c-6.637 6.208-6.967 16.675-0.726 23.312 6.241 6.703 16.642 7 23.345 0.726l189.994-178.239c6.637-6.208 6.967-16.675 0.726-23.312-3.269-3.467-7.627-5.217-12.052-5.217zM194.881 249.751c-4.392 0-8.783 1.75-12.052 5.217-6.241 6.637-5.91 17.104 0.726 23.312l190.060 178.239c6.67 6.208 17.137 5.944 23.345-0.726 6.241-6.637 5.91-17.104-0.726-23.312l-190.060-178.239c-3.17-3.005-7.231-4.491-11.293-4.491zM941.451 84.026h-858.903c-45.501 0-82.549 37.015-82.549 82.549v562.883c0 45.534 37.048 82.549 82.549 82.549h858.903c45.501 0 82.549-37.015 82.549-82.549v-562.883c0-45.534-37.048-82.549-82.549-82.549zM82.549 778.987c-27.307 0-49.529-22.222-49.529-49.529v-562.883c0-27.307 22.222-49.529 49.529-49.529h858.903c27.307 0 49.529 22.222 49.529 49.529v562.883c0 27.307-22.222 49.529-49.529 49.529h-858.903zM512 365.055c-21.958 0-43.916 7.297-60.624 21.859l-423.97 369.851c-6.868 5.977-7.594 16.411-1.618 23.312 6.043 6.868 16.444 7.495 23.312 1.585l423.97-369.818c21.099-18.392 56.76-18.392 77.827 0l423.442 369.224c6.835 5.977 17.236 5.316 23.312-1.585 5.977-6.901 5.283-17.302-1.585-23.312l-423.442-369.224c-16.741-14.595-38.666-21.892-60.624-21.892z" />
<glyph unicode="&#xe918;" glyph-name="map" d="M515.338 735.59c-72.166 0-130.906-58.739-130.906-130.906s58.739-130.906 130.906-130.906 130.906 58.739 130.906 130.906-58.739 130.906-130.906 130.906zM515.338 511.181c-51.558 0-93.504 41.946-93.504 93.504s41.946 93.504 93.504 93.504 93.504-41.946 93.504-93.504-41.946-93.504-93.504-93.504zM765.611 854.958c-67.734 67.734-157.797 105.042-253.583 105.042-95.804 0-185.849-37.308-253.583-105.042-125.351-125.333-140.929-361.15-33.736-504.024l287.319-414.933 286.889 414.354c107.623 143.454 92.045 379.271-33.306 504.604zM768.584 372.215l-256.556-370.5-256.968 371.080c-97.225 129.634-83.293 342.599 29.846 455.72 60.665 60.665 141.322 94.084 227.121 94.084s166.456-33.418 227.14-94.084c113.14-113.121 127.072-326.086 29.416-456.3z" />
<glyph unicode="&#xe919;" glyph-name="menu" d="M640 448c0-70.692-57.308-128-128-128s-128 57.308-128 128c0 70.692 57.308 128 128 128s128-57.308 128-128zM640 64c0-70.692-57.308-128-128-128s-128 57.308-128 128c0 70.692 57.308 128 128 128s128-57.308 128-128zM640 832c0-70.692-57.308-128-128-128s-128 57.308-128 128c0 70.692 57.308 128 128 128s128-57.308 128-128z" />
<glyph unicode="&#xe91a;" glyph-name="menus" d="M511.998 960c-282.316 0-511.998-229.682-511.998-511.998 0-142.283 59.941-279.319 164.452-375.973 8.45-7.814 21.634-7.297 29.448 1.15 7.814 8.453 7.3 21.634-1.153 29.448-96.009 88.792-151.070 214.675-151.070 345.376 0 259.335 210.987 470.322 470.322 470.322s470.322-210.987 470.322-470.322-210.987-470.322-470.322-470.322c-11.506 0-20.838-9.332-20.838-20.838s9.332-20.838 20.838-20.838c282.32 0 511.998 229.682 511.998 511.998s-229.679 511.998-511.998 511.998zM292.377 646.784h439.245c11.506 0 20.838 9.332 20.838 20.838s-9.332 20.838-20.838 20.838h-439.245c-11.506 0-20.838-9.332-20.838-20.838s9.332-20.838 20.838-20.838zM292.377 427.164h439.245c11.506 0 20.838 9.332 20.838 20.838s-9.332 20.838-20.838 20.838h-439.245c-11.506 0-20.838-9.332-20.838-20.838s9.332-20.838 20.838-20.838zM752.461 228.377c0 11.506-9.332 20.838-20.838 20.838h-439.245c-11.506 0-20.838-9.332-20.838-20.838s9.332-20.838 20.838-20.838h439.245c11.506 0 20.838 9.332 20.838 20.838z" />
<glyph unicode="&#xe91b;" glyph-name="minus-symbol" d="M36.2 411.555c-20.169 0-36.2 16.52-36.2 36.689s16.031 36.2 36.2 36.2h951.078c20.169 0 36.722-16.031 36.722-36.2s-16.552-36.722-36.722-36.722h-951.078z" />
<glyph unicode="&#xe91c;" glyph-name="more-button" d="M93.090 541.090c-51.416 0-93.090-41.673-93.090-93.090s41.674-93.090 93.090-93.090 93.092 41.673 93.092 93.090c0 51.418-41.674 93.090-93.092 93.090zM527.516 541.090c-51.418 0-93.090-41.674-93.090-93.090s41.674-93.090 93.090-93.090c51.416 0 93.090 41.671 93.090 93.090s-41.673 93.090-93.090 93.090zM930.91 541.090c-51.418 0-93.090-41.674-93.090-93.090s41.673-93.090 93.090-93.090c51.416 0 93.090 41.673 93.090 93.090s-41.674 93.090-93.090 93.090z" />
<glyph unicode="&#xe91d;" glyph-name="next" d="M1013.717 507.527l-452.236 372.701c-8.394 6.925-20.146 8.394-30.009 3.777s-16.159-14.69-16.159-25.602v-196.423c-219.507-7.974-370.393-85.411-448.878-230.42-67.573-125.073-66.943-273.23-66.314-371.232 0-7.974 0-15.529 0-22.664 0-12.801 8.604-24.133 21.195-27.491 2.308-0.63 4.827-0.839 7.135-0.839 10.073 0 19.516 5.246 24.553 14.27 153.194 270.082 279.316 283.093 462.099 283.723v-195.794c0-10.912 6.296-20.985 16.369-25.602s21.615-3.148 30.219 3.777l452.026 373.96c6.505 5.456 10.283 13.431 10.283 21.825s-3.777 16.578-10.283 22.035zM571.974 171.761v163.896c0 7.555-2.938 14.69-8.394 19.936-5.246 5.246-12.591 8.394-19.936 8.394-114.161 0-201.67-3.148-286.661-42.81-73.449-34.206-137.035-92.336-199.781-183.622 2.518 83.312 13.431 182.783 58.969 266.934 72.19 133.467 211.953 199.571 427.473 201.46 15.529 0.21 28.12 12.801 28.12 28.33v164.106l379.206-312.893-378.997-313.732z" />
<glyph unicode="&#xe91e;" glyph-name="next-pro" d="M782.183 468.443l-495.779 491.557-43.026-40.886 470.073-471.114-471.634-471.114 44.847-40.886 495.518 491.557z" />
<glyph unicode="&#xe91f;" glyph-name="paperclip" d="M858.571 329.147l-408.221 408.221c-67.931 67.801-153.242 73.511-212.577 14.176-59.335-59.27-53.69-144.711 14.112-212.577l367.168-367.168c12.509-12.445 32.906-12.445 45.35 0 12.509 12.509 12.509 32.906 0 45.35l-367.168 367.168c-32.906 32.906-53.881 82.169-14.176 121.877 39.643 39.705 88.969 18.667 121.877-14.241l408.157-408.157c117.13-117.257 146.316-171.267 76.526-241.059-70.625-70.496-145.418-52.983-257.927 59.527l-453.509 453.701c-73.253 73.255-124.569 192.885-28.288 289.103 114.306 114.306 244.843 1.923 282.048-35.344l416.688-416.817c12.445-12.509 32.843-12.509 45.35 0 12.445 12.509 12.445 32.843 0 45.415l-416.688 416.752c-125.982 125.982-268.832 139.452-372.813 35.344-105.071-105.006-93.716-257.671 28.353-379.804l453.571-453.507c38.551-38.68 121.106-121.106 216.040-121.106 42.593 0 87.814 16.677 132.652 61.515 127.457 127.52 9.558 245.612-76.524 331.63z" />
<glyph unicode="&#xe920;" glyph-name="phone" d="M1023.299 117.185c-3.256 24.606-17.461 45.823-38.969 58.205l-252.625 145.452c-30.941 17.815-70.192 12.628-95.447-12.624l-49.759-49.759c-13.241-13.243-34.189-14.415-48.718-2.723-39.228 31.564-77.851 66.302-114.796 103.249-36.945 36.945-71.683 75.567-103.249 114.796-11.693 14.53-10.523 35.477 2.723 48.72l49.757 49.759c25.252 25.25 30.445 64.497 12.626 95.445l-145.452 252.625c-12.385 21.51-33.599 35.713-58.205 38.969-24.609 3.262-48.788-4.945-66.34-22.497l-74.976-74.978c-52.329-52.331-53.17-148.055-2.366-269.541 48.85-116.813 140.013-245.406 256.692-362.089 116.683-116.681 245.275-207.844 362.091-256.694 59.8-25.007 113.352-37.502 158.567-37.5 46.639 0 84.402 13.298 110.975 39.869l74.976 74.978c17.549 17.551 25.75 41.731 22.497 66.338zM715.154 292.093l252.625-145.452c12.493-7.192 20.743-19.515 22.632-33.807 1.588-11.994-1.528-23.804-8.592-33.32l-335.735 191.61 13.635 13.635c14.665 14.665 37.467 17.68 55.436 7.334zM176.832 926.41c14.294-1.891 26.615-10.14 33.807-22.634l145.452-252.625c10.35-17.974 7.334-40.771-7.332-55.434l-12.524-12.524-192.663 334.625c7.876 5.832 17.295 8.999 27.114 8.999 2.037 0 4.091-0.135 6.146-0.407zM902.365-0.672c-41.574-41.574-126.602-39.831-233.282 4.782-112.925 47.223-237.729 135.847-351.429 249.544-113.699 113.699-202.323 238.506-249.546 351.429-44.615 106.682-46.356 191.71-4.782 233.286l55.66 55.662 192.953-335.131-12.94-12.94c-25.246-25.248-27.444-65.216-5.111-92.977 32.31-40.154 67.853-79.671 105.636-117.455 37.788-37.786 77.305-73.328 117.457-105.638 27.756-22.333 67.724-20.137 92.977 5.113l11.806 11.806 336.202-191.878-55.6-55.602z" />
<glyph unicode="&#xe921;" glyph-name="picture" d="M1006.345 854.069h-988.69c-9.746 0-17.655-7.892-17.655-17.655v-776.828c0-9.763 7.91-17.655 17.655-17.655h988.69c9.746 0 17.655 7.892 17.655 17.655v776.828c0 9.763-7.91 17.655-17.655 17.655zM988.69 77.241h-953.379v741.517h953.379v-741.517zM282.483 463.219c54.219 0 98.322 44.103 98.322 98.304 0 54.237-44.103 98.339-98.322 98.339s-98.322-44.103-98.322-98.322c0-54.219 44.103-98.322 98.322-98.322zM282.483 624.552c34.745 0 63.011-28.284 63.011-63.011s-28.266-63.011-63.011-63.011-63.011 28.266-63.011 62.994 28.266 63.029 63.011 63.029zM123.586 147.862c4.131 0 8.298 1.448 11.652 4.396l288.009 253.564 181.884-181.866c6.903-6.903 18.061-6.903 24.964 0s6.903 18.061 0 24.964l-84.868 84.868 162.092 177.505 198.815-182.254c7.186-6.585 18.361-6.091 24.947 1.095s6.109 18.361-1.095 24.947l-211.862 194.207c-3.46 3.16-8.068 4.732-12.712 4.626-4.679-0.212-9.092-2.278-12.253-5.738l-172.915-189.387-83.738 83.738c-6.603 6.585-17.161 6.921-24.152 0.777l-300.438-264.527c-7.327-6.444-8.033-17.602-1.589-24.929 3.496-3.972 8.369-5.985 13.259-5.985z" />
<glyph unicode="&#xe922;" glyph-name="pinterest" d="M899.709 704.396c-15.491 52.52-40.405 96.775-76.143 135.253-34.968 37.619-75.169 66.132-122.909 87.172-34.38 15.129-89.935 33.179-159.396 33.179-6.047 0-12.184-0.136-18.299-0.43-20.905-0.952-43.1-2.151-64.32-5.209-59.292-8.493-111.473-26.227-159.509-54.197-61.421-35.761-109.344-84.386-142.433-144.538-17.236-31.3-34.176-86.447-41.355-122.458-8.539-42.646-0.997-116.546 16.125-158.15 21.152-51.365 39.565-75.417 82.053-107.169 0.272-0.182 26.203-19.43 45.658-19.43h0.022c33.881 0.633 40.495 32.567 43.643 47.898 0.566 2.741 1.109 5.459 1.789 7.972 0.589 2.265 1.337 4.69 2.107 7.18 4.62 15.037 10.961 35.625 0.248 54.265-3.94 6.886-8.561 12.139-12.661 16.782-2.106 2.401-4.212 4.711-5.911 7.248-14.88 22.241-22.445 50.075-22.445 82.777 0 43.121 9.716 82.167 29.737 119.376 36.237 67.423 96.479 110.001 174.117 123.114 43.507 7.315 96.776 4.008 134.484-8.108 35.173-11.302 65.113-31.322 86.607-57.933 22.739-28.106 35.737-63.844 38.636-106.219 1.427-20.837 0.612-43.959-2.604-72.745-7.836-69.96-28.084-126.238-60.198-167.298-26.068-33.362-54.083-50.075-85.632-51.163l-4.257-0.069c-18.21 0-31.98 4.076-44.685 13.206-12.773 9.173-20.383 20.45-23.984 35.487-4.1 17.237 0.929 35.447 6.251 54.719l0.861 3.126c4.733 17.144 9.648 32.817 14.471 48.24 7.656 24.46 15.559 49.734 22.105 79.087 7.428 33.315 8.403 60.288 2.99 82.461-6.727 27.676-21.56 48.421-44.119 61.693-23.191 13.566-57.865 16.578-85.993 6.886-42.012-14.382-74.058-52.588-87.896-104.792-7.022-26.385-9.037-54.083-6.024-82.303 2.31-21.9 7.156-41.762 16.079-65.633-0.248-0.816-0.498-1.631-0.748-2.446-0.657-2.197-1.269-4.28-1.721-6.115-9.807-41.060-19.341-81.577-28.853-122.027-8.855-37.594-17.688-75.145-26.725-113.082l-2.017-8.471c-9.399-39.18-19.093-79.696-21.356-128.208l-0.997-20.043c-1.97-37.597-4.008-76.461 1.042-112.65 0.951-6.729 3.374-23.669 19.726-29.737 2.944-2.153 7.972-4.891 14.902-4.891v0c13.181 0 21.652 8.968 35.466 24.776 31.934 36.439 59.089 82.461 83.049 140.643 10.712 26.044 17.802 54.038 24.664 81.079l4.099 16.036c4.779 18.389 9.467 37.029 14.086 55.488 8.357-6.976 17.846-13.384 28.672-19.41 25.73-14.311 54.741-22.646 86.267-24.776 30.62-2.174 60.448 1.745 94.646 11.62 25.955 7.428 50.845 18.728 73.968 33.563 82.689 53.132 139.057 146.032 158.716 261.583 5.866 34.516 8.379 62.236 8.379 92.653 0.003 35.192-4.21 67.216-12.476 95.141zM859.146 524.21c-17.484-102.821-66.698-184.897-138.559-231.077-19.387-12.454-40.245-21.924-61.987-28.15-29.103-8.378-53.675-11.663-79.063-9.964-25.184 1.699-47.199 7.972-67.332 19.183-20.202 11.234-33.247 23.259-42.374 39.022-4.62 7.972-13.589 12.389-22.693 11.098-9.105-1.27-16.555-7.906-18.843-16.828l-10.192-40.381c-4.756-19.001-9.58-38.23-14.518-57.186l-4.144-16.307c-6.75-26.703-13.136-51.911-22.647-74.966-20.293-49.303-42.782-88.711-68.533-120.147-1.517 25.91-0.024 54.537 1.427 82.394l1.019 20.314c2.039 44.21 11.256 82.619 20.157 119.741l2.039 8.514c9.059 37.959 17.914 75.553 26.769 113.217 9.512 40.405 19.025 80.854 28.808 121.801l1.065 3.782c2.423 8.153 5.187 17.394 1.495 26.725-8.607 22.127-13.136 39.77-15.174 59.066-2.401 22.717-0.816 44.911 4.779 65.928 9.897 37.347 31.322 64.162 58.839 73.584 6.455 2.219 13.408 3.352 20.7 3.352 10.418 0 20.746-2.423 27.654-6.478 11.731-6.886 19.273-17.802 23.055-33.337 3.693-15.062 2.605-35.897-3.194-61.897-6.138-27.494-13.408-50.755-21.13-75.395-4.983-15.899-10.032-32.069-14.925-49.757l-0.861-3.080c-6.296-22.83-13.453-48.692-6.636-77.276 6.16-25.931 19.771-46.156 41.627-61.807 20.315-14.585 43.575-21.696 71.092-21.696l5.797 0.092c45.138 1.541 85.451 24.596 119.786 68.532 37.347 47.743 60.741 111.722 69.528 190.151 3.534 31.594 4.416 57.299 2.786 80.898-3.556 51.841-19.907 96.095-48.602 131.585-27.041 33.473-64.365 58.567-107.984 72.586-44.481 14.314-105.291 18.164-155.864 9.648-91.95-15.537-163.359-66.132-206.48-146.328-23.645-43.959-35.126-90.048-35.126-140.848 0-41.83 10.124-78.158 30.099-107.962 2.786-4.144 6.093-8.017 9.512-11.935 2.944-3.352 5.729-6.522 7.156-8.877 0.816-3.307-2.31-13.499-4.008-18.979-0.974-3.149-1.881-6.161-2.627-8.991-0.861-3.285-1.585-6.794-2.333-10.329-0.612-2.919-1.473-7.155-2.401-10.304-4.779 2.197-11.551 6.070-15.423 8.945-35.988 26.907-49.192 44.21-67.287 88.146-13.589 33.021-20.315 98.406-13.612 132.037 7.564 37.798 23.645 85.925 36.621 109.502 29.080 52.86 71.318 95.665 125.515 127.213 42.94 24.982 89.753 40.857 143.18 48.512 19.229 2.763 39.317 3.85 59.95 4.779 68.215 3.058 124.315-14.404 157.358-28.944 41.988-18.503 77.296-43.529 107.984-76.55 30.869-33.247 52.43-71.59 65.907-117.249 7.044-23.758 10.598-51.456 10.598-82.303-0.003-27.719-2.336-53.152-7.749-85.018z" />
<glyph unicode="&#xe923;" glyph-name="plus-symbol" d="M36.441 411.559c-20.158 0-36.181 16.543-36.181 36.702s16.022 36.181 36.181 36.181h438.825v438.857c0.033 20.158 16.576 36.702 36.734 36.702s36.181-16.543 36.181-36.702v-438.857h438.825c20.158 0 36.702-16.022 36.702-36.181s-16.543-36.702-36.702-36.702h-438.825v-438.857c0-20.158-16.022-36.702-36.181-36.702s-36.702 16.543-36.702 36.702v438.857h-438.857z" />
<glyph unicode="&#xe924;" glyph-name="print" d="M853.333 413.867c47.053 0 85.333 38.281 85.333 85.333s-38.281 85.333-85.333 85.333-85.333-38.281-85.333-85.333 38.281-85.333 85.333-85.333zM853.333 550.4c28.228 0 51.2-22.972 51.2-51.2s-22.972-51.2-51.2-51.2-51.2 22.972-51.2 51.2 22.972 51.2 51.2 51.2zM716.8 226.133h-409.6c-9.438 0-17.067-7.629-17.067-17.067s7.629-17.067 17.067-17.067h409.6c9.438 0 17.067 7.629 17.067 17.067s-7.629 17.067-17.067 17.067zM716.8 140.8h-409.6c-9.438 0-17.067-7.629-17.067-17.067s7.629-17.067 17.067-17.067h409.6c9.438 0 17.067 7.629 17.067 17.067s-7.629 17.067-17.067 17.067zM870.4 669.867v290.133h-716.8v-290.133h-153.6v-580.267h102.4v-51.2h51.2v-102.4h716.8v102.4h51.2v51.2h102.4v580.267h-153.6zM187.733 925.867h648.533v-256h-648.533v256zM153.6 635.733h836.267v-273.067h-955.733v273.067h119.467zM136.533 72.533v119.467c0 9.438-7.629 17.067-17.067 17.067s-17.067-7.629-17.067-17.067v-68.267h-68.267v204.8h119.467v-256h-17.067zM836.267-29.867h-648.533v358.4h648.533v-358.4zM921.6 123.733v68.267c0 9.438-7.629 17.067-17.067 17.067s-17.067-7.629-17.067-17.067v-119.467h-17.067v256h119.467v-204.8h-68.267z" />
<glyph unicode="&#xe925;" glyph-name="promos" d="M1010.483 954.999c-6.673 6.673-17.46 6.673-24.133 0l-63.268-63.268h-397.376l-499.558-503.671c-11.367-11.367-17.63-26.505-17.63-42.583s6.264-31.216 17.63-42.583l349.298-349.298c11.725-11.725 27.103-17.596 42.514-17.596 15.48 0 30.96 5.922 42.822 17.767l486.433 499.575v414.256l63.268 63.268c6.673 6.673 6.673 17.46 0 24.133zM913.080 467.201l-476.603-489.471c-10.172-10.172-26.727-10.172-36.899 0l-349.298 349.298c-10.172 10.172-10.172 26.727 0.051 36.951l489.608 493.619h349.008l-82.486-82.486c-13.5 8.943-29.629 14.217-46.986 14.217-47.054 0-85.336-38.282-85.336-85.336s38.282-85.336 85.336-85.336 85.336 38.282 85.336 85.336c0 17.357-5.274 33.486-14.217 46.986l82.486 82.486v-366.263zM810.677 703.991c0-28.229-22.972-51.202-51.202-51.202s-51.202 22.972-51.202 51.202 22.972 51.202 51.202 51.202c7.885 0 15.258-1.946 21.931-5.137l-33.998-33.998c-6.673-6.673-6.673-17.46 0-24.133 3.328-3.328 7.697-5.001 12.067-5.001s8.738 1.673 12.067 5.001l33.998 33.998c3.209-6.673 5.137-14.046 5.137-21.931zM581.122 286.203l-181.049-181.015c-6.673-6.673-6.673-17.46 0-24.133 3.328-3.328 7.697-5.001 12.067-5.001s8.738 1.673 12.067 5.001l181.032 181.015c6.673 6.673 6.673 17.46 0 24.133s-17.46 6.673-24.116 0zM641.37 346.621c-3.089-3.243-4.949-7.68-4.949-12.118 0-4.455 1.86-8.892 4.949-12.118 3.226-3.089 7.68-4.949 12.118-4.949 4.608 0 9.029 1.86 12.118 4.949 3.072 3.226 4.949 7.493 4.949 12.118 0 4.608-1.877 9.029-4.949 12.118-6.144 6.315-17.921 6.315-24.235 0zM496.639 491.385c6.673 6.673 6.673 17.46 0 24.133s-17.46 6.673-24.133 0l-181.032-181.032c-6.673-6.673-6.673-17.46 0-24.133 3.328-3.328 7.697-5.001 12.067-5.001s8.738 1.673 12.067 5.001l181.032 181.032zM436.29 286.203c3.328-3.328 7.697-5.001 12.067-5.001s8.738 1.673 12.067 5.001l120.682 120.682c6.673 6.673 6.673 17.46 0 24.133s-17.46 6.673-24.133 0l-120.682-120.682c-6.656-6.656-6.656-17.46 0-24.133zM339.74 213.803l-24.133-24.15c-6.673-6.673-6.673-17.477 0-24.133 3.328-3.328 7.697-5.001 12.067-5.001s8.738 1.673 12.067 5.001l24.133 24.15c6.673 6.673 6.673 17.477 0 24.133-6.656 6.673-17.46 6.673-24.133 0zM351.807 539.651c-6.673 6.673-17.46 6.673-24.133 0l-181.015-181.015c-6.673-6.673-6.673-17.46 0-24.133 3.328-3.328 7.697-5.001 12.067-5.001s8.738 1.673 12.067 5.001l181.015 181.015c6.673 6.673 6.673 17.46 0 24.133zM400.022 570.867c4.625 0 8.892 1.877 12.118 4.949 3.089 3.243 4.949 7.68 4.949 12.118 0 4.608-1.86 9.046-4.949 12.118-6.298 6.315-17.921 6.315-24.048 0-3.243-3.243-5.137-7.51-5.137-12.118 0-4.437 1.877-8.875 4.949-12.118 3.26-3.055 7.697-4.949 12.118-4.949zM243.191 286.203c-3.243-3.089-4.949-7.51-4.949-12.118 0-4.455 1.707-8.892 4.949-11.947 3.226-3.243 7.493-5.12 12.118-5.12 4.437 0 8.875 1.86 12.118 5.12 3.072 3.226 4.949 7.493 4.949 11.947 0 4.608-1.877 8.875-5.12 12.118-6.315 6.315-17.75 6.315-24.065 0zM412.14 237.885c3.243 3.226 4.949 7.68 4.949 12.118s-1.707 8.875-4.949 12.118c-6.298 6.315-17.921 6.315-24.235 0-3.072-3.243-4.949-7.68-4.949-12.118s1.877-8.892 4.949-12.118c3.243-3.089 7.68-4.949 12.118-4.949 4.625 0 8.892 1.877 12.118 4.949z" />
<glyph unicode="&#xe926;" glyph-name="refresh" d="M511.998 960c-11.506 0-20.838-9.332-20.838-20.838s9.332-20.838 20.838-20.838c259.335 0 470.322-210.987 470.322-470.322s-210.987-470.322-470.322-470.322-470.322 210.983-470.322 470.322c0 176.444 97.391 336.544 254.167 417.823 10.218 5.296 14.205 17.872 8.908 28.090s-17.876 14.205-28.090 8.908c-170.651-88.472-276.662-262.752-276.662-454.822 0-282.32 229.682-511.998 511.998-511.998s511.998 229.682 511.998 511.998-229.679 511.998-511.998 511.998zM712.712 711.761c-58.090 44.271-127.495 67.669-200.714 67.669-182.751 0-331.432-148.681-331.432-331.432s148.681-331.432 331.432-331.432c88.528 0 171.759 34.473 234.357 97.075 8.137 8.137 8.137 21.331 0 29.469s-21.335 8.137-29.469 0c-54.728-54.728-127.492-84.867-204.888-84.867-159.77 0-289.755 129.982-289.755 289.755s129.982 289.755 289.755 289.755c128.134 0 242.567-85.836 278.28-208.743 3.209-11.051 14.771-17.403 25.825-14.194 11.051 3.213 17.407 14.774 14.194 25.825-19.616 67.512-61.375 128.287-117.587 171.12zM756.333 511.069c-8.141 8.137-21.335 8.137-29.469 0-8.137-8.137-8.137-21.331 0-29.469l78.386-78.39c3.907-3.907 9.207-6.102 14.736-6.102s10.829 2.195 14.736 6.102l78.386 78.39c8.137 8.137 8.137 21.331 0 29.469-8.141 8.137-21.335 8.137-29.469 0l-63.654-63.654-63.654 63.654z" />
<glyph unicode="&#xe927;" glyph-name="right-arrow" d="M689.55 797.181c-13.95 14.438-37.168 14.438-51.606 0-13.95-13.95-13.95-37.168 0-51.086l261.674-261.674h-863.49c-20.129-0.033-36.128-16.032-36.128-36.16s15.999-36.648 36.128-36.648h863.49l-261.674-261.187c-13.95-14.438-13.95-37.689 0-51.606 14.438-14.438 37.689-14.438 51.606 0l323.622 323.622c14.438 13.95 14.438 37.168 0 51.086l-323.622 323.654z" />
<glyph unicode="&#xe928;" glyph-name="search" d="M999.602-31.269l-287.271 298.755c73.273 73.485 118.667 174.791 118.667 286.517 0 223.878-182.118 405.996-405.996 405.996s-405.996-182.118-405.996-405.996 182.118-405.996 405.996-405.996c98.27 0 188.46 35.128 258.755 93.418l287.967-299.49c3.789-3.963 8.855-5.935 13.939-5.935 4.833 0 9.647 1.798 13.398 5.394 7.695 7.405 7.927 19.642 0.541 27.337zM425.001 186.674c-202.553 0-367.33 164.776-367.33 367.33s164.776 367.33 367.33 367.33 367.33-164.776 367.33-367.33-164.796-367.33-367.33-367.33z" />
<glyph unicode="&#xe929;" glyph-name="sent" d="M1024 372.573l-2.093 5.366-0.686 13.634h-7.494l-175.678 263.886h-202.928v-35.185h184.104l152.684-228.701h-284.011v-123.147h-351.848v123.147h-284.011l152.684 228.701h184.104v35.185h-202.946l-176.504-264.431-7.582-0.387v-14.215l-1.794-4.416 1.794-2.533v-340.571c0-32.827 26.723-59.533 59.55-59.533h901.258c32.827 0 59.55 26.705 59.55 59.533v340.87l1.847 2.797zM986.968 28.905c0-13.423-10.925-24.348-24.365-24.348h-901.276c-13.441 0-24.365 10.925-24.365 24.348v327.482h263.886v-123.147h422.217v123.147h263.886v-327.482zM383.672 748.575l110.709 110.709v-485.304c0-9.711 7.864-17.592 17.592-17.592s17.592 7.881 17.592 17.592v485.304l110.709-110.709c3.431-3.431 7.934-5.155 12.438-5.155s9.007 1.724 12.438 5.155c6.879 6.879 6.879 17.997 0 24.876l-140.721 140.721c-0.018 0.018-0.018 0.018-0.035 0.035l-12.42 12.42-12.42-12.42c-0.018-0.018-0.018-0.018-0.035-0.035l-140.721-140.721c-6.879-6.879-6.879-17.997 0-24.876s17.997-6.861 24.876 0z" />
<glyph unicode="&#xe92a;" glyph-name="settings" d="M971.283 561.778h-95.801c-15.398 0-28.084 8.476-33.982 22.699s-2.901 29.203 7.964 40.088l67.736 67.717c9.956 9.956 15.436 23.211 15.436 37.281 0 14.089-5.48 27.326-15.436 37.3l-86.338 86.338c-19.911 19.911-54.632 19.949-74.581 0l-67.717-67.717c-10.885-10.866-25.903-13.9-40.088-7.983-14.222 5.897-22.699 18.584-22.699 33.982v95.801c0 29.070-23.647 52.717-52.717 52.717h-122.121c-29.070 0-52.717-23.647-52.717-52.717v-95.801c0-15.398-8.476-28.084-22.699-33.982-14.184-5.935-29.203-2.882-40.088 7.983l-67.717 67.717c-19.949 19.949-54.67 19.911-74.581 0l-86.338-86.338c-9.956-9.956-15.436-23.211-15.436-37.3 0-14.071 5.48-27.307 15.436-37.281l67.736-67.717c10.866-10.885 13.843-25.865 7.964-40.088s-18.584-22.699-33.982-22.699h-95.801c-29.070 0-52.717-23.647-52.717-52.717v-122.103c0-29.089 23.647-52.736 52.717-52.736h95.801c15.398 0 28.084-8.476 33.982-22.699s2.901-29.203-7.964-40.088l-67.736-67.717c-9.956-9.956-15.436-23.211-15.436-37.281 0-14.089 5.48-27.326 15.436-37.3l86.338-86.338c19.93-19.93 54.632-19.968 74.581 0l67.717 67.736c10.885 10.866 25.847 13.862 40.088 7.964 14.222-5.897 22.699-18.584 22.699-33.982v-95.801c0-29.070 23.647-52.717 52.717-52.717h122.103c29.070 0 52.717 23.647 52.717 52.717v95.801c0 15.398 8.476 28.084 22.699 33.982 14.241 5.916 29.203 2.901 40.088-7.964l67.717-67.736c19.949-19.949 54.67-19.911 74.581 0l86.338 86.338c9.956 9.956 15.436 23.211 15.436 37.3 0 14.071-5.48 27.307-15.436 37.281l-67.736 67.717c-10.866 10.885-13.843 25.865-7.964 40.088s18.603 22.699 34.001 22.699h95.801c29.070 0 52.717 23.647 52.717 52.717v122.121c0 29.070-23.647 52.717-52.717 52.717zM986.074 386.939c0-8.154-6.637-14.791-14.791-14.791h-95.801c-30.796 0-57.249-17.673-69.025-46.118-11.795-28.444-5.594-59.657 16.194-81.427l67.736-67.717c5.784-5.784 5.784-15.17 0-20.935l-86.338-86.338c-5.765-5.765-15.151-5.803-20.935 0l-67.717 67.736c-21.788 21.788-52.983 27.951-81.427 16.194-28.444-11.776-46.118-38.229-46.118-69.025v-95.801c0-8.154-6.637-14.791-14.791-14.791h-122.121c-8.154 0-14.791 6.637-14.791 14.791v95.801c0 30.796-17.673 57.249-46.118 69.025-9.538 3.963-19.361 5.897-29.070 5.897-19.228 0-37.869-7.585-52.357-22.073l-67.717-67.736c-5.803-5.803-15.189-5.765-20.935 0l-86.338 86.338c-5.784 5.784-5.784 15.17 0 20.935l67.736 67.717c21.769 21.769 27.989 52.983 16.194 81.427-11.776 28.425-38.229 46.099-69.025 46.099h-95.801c-8.154 0-14.791 6.637-14.791 14.791v122.121c0 8.154 6.637 14.791 14.791 14.791h95.801c30.796 0 57.249 17.673 69.025 46.118 11.795 28.444 5.594 59.657-16.194 81.427l-67.736 67.717c-5.784 5.784-5.784 15.17 0 20.935l86.338 86.338c5.765 5.784 15.151 5.784 20.935 0l67.717-67.717c21.751-21.751 52.945-27.989 81.427-16.194 28.444 11.757 46.118 38.21 46.118 69.006v95.801c0 8.154 6.637 14.791 14.791 14.791h122.103c8.173 0 14.81-6.637 14.81-14.791v-95.801c0-30.796 17.673-57.249 46.118-69.025 28.482-11.795 59.657-5.575 81.427 16.194l67.717 67.717c5.803 5.784 15.189 5.784 20.935 0l86.338-86.338c5.784-5.784 5.784-15.17 0-20.935l-67.736-67.717c-21.769-21.769-27.989-52.983-16.194-81.427 11.776-28.444 38.229-46.118 69.025-46.118h95.801c8.154 0.019 14.791-6.618 14.791-14.772v-122.121zM512 618.667c-94.113 0-170.667-76.553-170.667-170.667s76.553-170.667 170.667-170.667 170.667 76.553 170.667 170.667-76.553 170.667-170.667 170.667zM512 315.259c-73.178 0-132.741 59.563-132.741 132.741s59.563 132.741 132.741 132.741 132.741-59.563 132.741-132.741-59.563-132.741-132.741-132.741z" />
<glyph unicode="&#xe92b;" glyph-name="social" d="M811.375 302.14c-58.897 0-111.415-28.066-145.010-71.442l-281.302 157.13c6.591 18.924 10.206 39.336 10.206 60.385 0 21.262-3.615 41.462-10.419 60.598l281.090 156.917c33.382-43.588 86.113-71.867 145.223-71.867 100.784 0 183.070 82.073 183.070 183.070s-82.073 183.070-183.070 183.070-183.070-82.073-183.070-183.070c0-21.262 3.615-41.674 10.419-60.598l-280.877-156.917c-33.382 43.801-86.113 71.867-145.223 71.867-100.784 0-183.070-82.073-183.070-183.070s82.286-183.070 183.282-183.070c59.11 0 111.841 28.279 145.435 72.080l281.090-157.13c-6.804-19.136-10.631-39.761-10.631-61.023 0-100.784 82.073-183.070 183.070-183.070s183.070 82.073 183.070 183.070-82.286 183.070-183.282 183.070zM811.375 902.379c69.316 0 125.661-56.346 125.661-125.661s-56.346-125.661-125.661-125.661-125.661 56.346-125.661 125.661 56.558 125.661 125.661 125.661zM212.625 322.551c-69.316 0-125.661 56.346-125.661 125.661s56.346 125.661 125.661 125.661 125.661-56.346 125.661-125.661-56.558-125.661-125.661-125.661zM811.375-6.379c-69.316 0-125.661 56.346-125.661 125.661s56.346 125.661 125.661 125.661 125.661-56.346 125.661-125.661c0-69.316-56.346-125.661-125.661-125.661z" />
<glyph unicode="&#xe92c;" glyph-name="star" d="M1022.536 565.032c-3.54 10.86-12.92 18.78-24.22 20.42l-316.078 45.92-141.34 286.398c-5.060 10.24-15.48 16.74-26.9 16.74s-21.84-6.5-26.9-16.74l-141.338-286.358-320.018-45.96c-11.36-1.62-20.8-9.58-24.3-20.52-3.52-10.92-0.48-22.88 7.8-30.82l232.498-222.918-53.96-314.638c-1.94-11.24 2.7-22.62 11.92-29.34 9.26-6.7 21.5-7.6 31.6-2.28l282.7 148.62 282.698-148.618c10.066-5.286 22.342-4.444 31.58 2.28 9.24 6.72 13.88 18.1 11.94 29.34l-53.98 314.798 228.698 222.918c8.18 7.978 11.12 19.898 7.6 30.758zM733.058 343.314c-7.080-6.9-10.3-16.84-8.62-26.56l46.38-270.418-242.858 127.678c-4.36 2.3-9.16 3.44-13.96 3.44s-9.6-1.14-13.96-3.44l-242.858-127.678 46.38 270.418c1.7 9.82-1.6 19.82-8.8 26.72l-199.558 191.338 274.738 39.46c9.78 1.4 18.26 7.54 22.64 16.4l121.418 246.038 121.42-246.038c4.38-8.84 12.82-14.98 22.6-16.4l271.518-39.46-196.48-191.498z" />
<glyph unicode="&#xe92d;" glyph-name="success" d="M512 960c-282.309 0-512-229.671-512-512s229.691-512 512-512 512 229.671 512 512-229.691 512-512 512zM512-24.615c-260.588 0-472.615 212.027-472.615 472.615s212.027 472.615 472.615 472.615 472.615-212.027 472.615-472.615-212.027-472.615-472.615-472.615zM753.27 657.999l-302.651-340.48-182.331 145.861c-8.468 6.794-20.894 5.396-27.668-3.072-6.794-8.507-5.415-20.894 3.072-27.687l196.923-157.538c3.623-2.895 7.975-4.313 12.308-4.313 5.435 0 10.85 2.245 14.73 6.617l315.077 354.462c7.227 8.113 6.498 20.578-1.634 27.786-8.153 7.247-20.578 6.518-27.825-1.634z" />
<glyph unicode="&#xe92e;" glyph-name="support" d="M592.204 482.148c-5.858 5.858-15.354 5.86-21.214 0-13.932-13.934-32.458-21.606-52.162-21.606s-38.23 7.672-52.162 21.606c-5.86 5.858-15.356 5.86-21.214 0-5.858-5.858-5.858-15.354 0-21.212 19.6-19.6 45.658-30.394 73.376-30.394s53.778 10.794 73.376 30.394c5.856 5.856 5.856 15.354 0 21.212zM766.032 217.794l-82.63 19.334c-30.418 7.118-51.662 33.906-51.662 65.144v31.742c22.756 13.814 42.754 31.732 58.98 52.708h1.194c45.878 0 83.202 37.324 83.202 83.204 0 0.52-0.026 1.034-0.078 1.54 22.648 5.466 39.53 25.89 39.53 50.194v108.526c0 28.476-23.168 51.642-51.644 51.642h-27.26v0.092c0 8.358-6.776 15.136-15.136 15.136-2.934 0-5.666-0.848-7.984-2.294-0.108-0.068-0.21-0.114-0.32-0.186-24.66-16.184-80.258-25.134-109.262-25.134-72.24 0-141.78 25.796-200.726 72.916l-71.188 76.74c6.856 10.654 14.198 20.59 21.922 29.598 5.442 6.344 4.71 15.9-1.634 21.342-6.35 5.446-15.904 4.71-21.344-1.634-11.12-12.966-21.506-27.556-30.87-43.366-15.704-25.218-26.718-52.698-32.732-81.688-4.38-21.108-5.964-42.618-4.826-64.124-20.588-6.798-35.492-26.206-35.492-49.042v-0.804c-40.71 30.774-65.15 78.942-65.15 131.006 0 90.572 73.688 164.26 164.26 164.26 19.402 0 38.598-3.442 56.64-10.054-3.722-2.508-7.442-5.112-11.146-7.904-6.674-5.030-8.010-14.52-2.98-21.196 5.032-6.676 14.522-8.010 21.198-2.98 66.402 50.034 139.612 47.198 140.318 47.16 51.326-2.65 99.872-25.78 144.292-68.746 39.408-38.12 68.786-92.256 87.32-160.908 1.822-6.75 7.932-11.194 14.604-11.194 1.306 0 2.634 0.17 3.956 0.528 8.070 2.178 12.846 10.488 10.668 18.556-19.98 74.002-52.108 132.804-95.5 174.778-49.832 48.198-104.934 74.178-163.778 77.218-2.762 0.14-56.202 2.426-116.414-26.616-27.436 14.16-58.086 21.63-89.178 21.63-107.266 0-194.532-87.266-194.532-194.53 0-69.098 36.342-132.4 95.422-167.396v-71.332c0-28.476 23.166-51.642 51.64-51.642h32.706c13.874-60.42 53.242-111.21 106.124-140.42v-27.324c0-31.24-21.242-58.028-51.66-65.144l-82.63-19.334c-74.96-17.54-127.316-83.558-127.316-160.544v-106.116c0-8.358 6.776-15.136 15.136-15.136h708.14c8.36 0 15.136 6.776 15.136 15.136v106.118c0 76.982-52.354 143-127.316 160.54zM735.668 518.236v133.32h27.26c11.786 0 21.372-9.588 21.372-21.372v-108.526c0-11.784-9.588-21.372-21.372-21.372h-27.26v17.95zM730.22 470.016h14.632c0-0.030-0.004-0.060-0.004-0.092 0-21.886-13.35-40.71-32.334-48.76 7.772 15.328 13.768 31.702 17.706 48.852zM304.974 518.236v-17.948h-27.26c-11.782 0-21.37 9.588-21.37 21.372v108.526c0 11.784 9.588 21.372 21.37 21.372h27.26v-133.322zM317.258 696.776c-2.412-0.46-4.614-1.494-6.472-2.952-6.286-2.744-12.708-5.228-19.266-7.404-0.47 17.042 1.038 34.056 4.51 50.78 3.76 18.13 9.774 35.584 17.89 52.138 16.912-21.704 35.354-41.264 55.030-58.568-18.522-15.762-34.852-25.284-41.862-29.050-3.226-1.734-6.512-3.368-9.83-4.944zM335.244 518.236v153.628c2.072 1.040 4.134 2.096 6.172 3.192 8.464 4.548 28.916 16.468 51.382 36.324 62.202-46.72 134.746-72.212 210.168-72.212 25.442 0 69.564 5.954 102.43 18.536v-139.468c0-37.344-11.128-72.132-30.226-101.244h-134.14c-8.36 0-15.136-6.776-15.136-15.136s6.776-15.136 15.136-15.136h109.374c-33.454-33.094-79.42-53.562-130.084-53.562-102.050 0.002-185.076 83.026-185.076 185.078zM863.078-33.732h-102.814v34.294c0 8.358-6.776 15.136-15.136 15.136s-15.136-6.776-15.136-15.136v-34.294h-411.69v34.294c0 8.358-6.776 15.136-15.136 15.136s-15.136-6.776-15.136-15.136v-34.294h-102.822v90.98c0 62.852 42.744 116.752 103.942 131.070l15.356 3.594c12.188-21.368 27.366-40.806 45.274-57.884 2.93-2.794 6.688-4.182 10.442-4.182 3.994 0 7.982 1.572 10.956 4.69 5.768 6.050 5.542 15.63-0.508 21.4-13.576 12.948-25.374 27.432-35.24 43.212l36.352 8.506c44.178 10.338 75.034 49.246 75.034 94.618v13.542c22.948-8.36 47.704-12.926 73.506-12.926 28.696 0 56.090 5.656 81.148 15.888v-16.504c0-45.374 30.856-84.282 75.034-94.618l36.348-8.504c-40.534-65.010-111.17-104.668-188.708-104.668-36.564 0-72.81 9.062-104.82 26.204-7.364 3.948-16.542 1.172-20.488-6.196-3.948-7.368-1.172-16.542 6.196-20.488 36.39-19.49 77.576-29.792 119.112-29.792 91.542 0 174.616 48.642 219.628 127.704l15.364-3.596c61.198-14.32 103.942-68.216 103.942-131.070v-90.98zM455.92 603.798c0-8.284-6.716-15-15-15s-15 6.716-15 15c0 8.284 6.716 15 15 15s15-6.716 15-15zM606.82 603.798c0-8.284-6.716-15-15-15s-15 6.716-15 15c0 8.284 6.716 15 15 15s15-6.716 15-15z" />
<glyph unicode="&#xe92f;" glyph-name="tax" d="M854.046 960h-684.092c-27.702 0-50.238-22.536-50.238-50.238v-923.524c0-27.702 22.536-50.238 50.238-50.238h530.172c4.252 0 8.332 1.688 11.336 4.696l188.126 188.126c3.008 3.006 4.696 7.084 4.696 11.336v769.604c0 27.702-22.536 50.238-50.238 50.238zM716.158-9.26v115.214c0 10.020 8.152 18.172 18.172 18.172h115.214l-133.386-133.386zM872.218 156.192h-137.888c-27.702 0-50.238-22.536-50.238-50.238v-137.888h-514.138c-10.020 0-18.172 8.152-18.172 18.172v923.524c0 10.020 8.152 18.172 18.172 18.172h684.092c10.020 0 18.172-8.152 18.172-18.172v-753.57zM409.386 823.182h-136.818c-8.854 0-16.034-7.178-16.034-16.034s7.178-16.034 16.034-16.034h52.376v-154.99c0-8.854 7.178-16.034 16.034-16.034s16.034 7.178 16.034 16.034v154.99h52.376c8.854 0 16.034 7.178 16.034 16.034s-7.182 16.034-16.036 16.034zM578.664 640.732l-47.652 158.836c-4.238 14.124-16.992 23.614-31.738 23.614h-8.756c-14.746 0-27.5-9.49-31.738-23.614l-47.652-158.836c-2.544-8.482 2.268-17.42 10.75-19.964 8.482-2.55 17.42 2.268 19.964 10.748l6.832 22.78h92.438l6.834-22.778c2.084-6.946 8.454-11.43 15.352-11.43 1.524 0 3.076 0.22 4.614 0.68 8.484 2.544 13.298 11.482 10.752 19.964zM458.298 686.364l31.196 103.99c0.134 0.448 0.556 0.762 1.024 0.762h8.756c0.468 0 0.89-0.312 1.024-0.762l31.196-103.99h-73.196zM747.464 645.32l-53.424 76.316 53.424 76.316c5.078 7.254 3.314 17.252-3.94 22.33s-17.252 3.316-22.33-3.94l-46.724-66.748-46.724 66.748c-5.078 7.256-15.078 9.020-22.33 3.94-7.256-5.078-9.020-15.076-3.94-22.33l53.424-76.316-53.42-76.316c-5.078-7.254-3.314-17.252 3.94-22.33 2.798-1.96 6.006-2.898 9.18-2.898 5.054 0 10.030 2.384 13.148 6.84l46.724 66.748 46.724-66.748c3.12-4.456 8.094-6.84 13.148-6.84 3.174 0 6.384 0.94 9.18 2.898 7.254 5.078 9.020 15.076 3.94 22.33zM272.568 532.442h-34.204c-8.854 0-16.034-7.178-16.034-16.034s7.178-16.034 16.034-16.034h34.204c8.854 0 16.034 7.178 16.034 16.034s-7.18 16.034-16.034 16.034zM272.568 464.034h-34.204c-8.854 0-16.034-7.178-16.034-16.034s7.178-16.034 16.034-16.034h34.204c8.854 0 16.034 7.178 16.034 16.034s-7.18 16.034-16.034 16.034zM272.568 395.624h-34.204c-8.854 0-16.034-7.178-16.034-16.034s7.178-16.034 16.034-16.034h34.204c8.854 0 16.034 7.178 16.034 16.034s-7.18 16.034-16.034 16.034zM785.636 532.442h-34.204c-8.854 0-16.034-7.178-16.034-16.034s7.178-16.034 16.034-16.034h34.204c8.854 0 16.034 7.178 16.034 16.034s-7.178 16.034-16.034 16.034zM785.636 464.034h-34.204c-8.854 0-16.034-7.178-16.034-16.034s7.178-16.034 16.034-16.034h34.204c8.854 0 16.034 7.178 16.034 16.034s-7.178 16.034-16.034 16.034zM785.636 395.624h-34.204c-8.854 0-16.034-7.178-16.034-16.034s7.178-16.034 16.034-16.034h34.204c8.854 0 16.034 7.178 16.034 16.034s-7.178 16.034-16.034 16.034zM546.204 532.442h-205.226c-8.854 0-16.034-7.178-16.034-16.034s7.178-16.034 16.034-16.034h205.228c8.854 0 16.034 7.178 16.034 16.034s-7.18 16.034-16.036 16.034zM477.796 464.034h-136.818c-8.854 0-16.034-7.178-16.034-16.034s7.178-16.034 16.034-16.034h136.818c8.854 0 16.034 7.178 16.034 16.034s-7.18 16.034-16.034 16.034zM546.204 395.624h-205.226c-8.854 0-16.034-7.178-16.034-16.034s7.178-16.034 16.034-16.034h205.228c8.854 0 16.034 7.178 16.034 16.034s-7.18 16.034-16.036 16.034zM305.704 185.64v55.718c11.814-3.872 19.24-11.666 19.24-18.894 0-8.854 7.178-16.034 16.034-16.034s16.034 7.178 16.034 16.034c0 25.568-21.536 46.396-51.306 51.968v2.546c0 8.854-7.178 16.034-16.034 16.034s-16.034-7.178-16.034-16.034v-2.546c-29.77-5.572-51.306-26.4-51.306-51.968 0-35.724 28.53-50.738 51.306-59.38v-55.718c-11.814 3.872-19.24 11.668-19.24 18.894 0 8.854-7.178 16.034-16.034 16.034s-16.034-7.178-16.034-16.034c0-25.568 21.536-46.396 51.306-51.968v-2.546c0-8.854 7.178-16.034 16.034-16.034s16.034 7.178 16.034 16.034v2.546c29.77 5.572 51.306 26.4 51.306 51.968 0 35.726-28.53 50.74-51.306 59.38zM273.636 198.068c-15.984 7.832-19.24 14.674-19.24 24.396 0 7.228 7.426 15.022 19.24 18.894v-43.29zM305.704 107.37v43.29c15.984-7.832 19.24-14.674 19.24-24.396 0-7.228-7.428-15.024-19.24-18.894zM529.102 258.806h-119.716c-8.854 0-16.034-7.178-16.034-16.034s7.178-16.034 16.034-16.034h119.716c8.854 0 16.034 7.178 16.034 16.034s-7.178 16.034-16.034 16.034zM477.796 121.988h-68.41c-8.854 0-16.034-7.178-16.034-16.034 0-8.854 7.178-16.034 16.034-16.034h68.41c8.854 0 16.034 7.178 16.034 16.034-0.002 8.854-7.18 16.034-16.034 16.034zM580.41 121.988h-34.204c-8.854 0-16.034-7.178-16.034-16.034 0-8.854 7.178-16.034 16.034-16.034h34.204c8.854 0 16.034 7.178 16.034 16.034-0.002 8.854-7.18 16.034-16.034 16.034zM631.716 190.396h-222.33c-8.854 0-16.034-7.178-16.034-16.034 0-8.854 7.178-16.034 16.034-16.034h222.33c8.854 0 16.034 7.178 16.034 16.034s-7.18 16.034-16.034 16.034zM562.238 448c0-8.855-7.179-16.034-16.034-16.034s-16.034 7.179-16.034 16.034c0 8.855 7.179 16.034 16.034 16.034s16.034-7.179 16.034-16.034zM630.648 448c0-8.855-7.179-16.034-16.034-16.034s-16.034 7.179-16.034 16.034c0 8.855 7.179 16.034 16.034 16.034s16.034-7.179 16.034-16.034zM699.056 448c0-8.855-7.179-16.034-16.034-16.034s-16.034 7.179-16.034 16.034c0 8.855 7.179 16.034 16.034 16.034s16.034-7.179 16.034-16.034zM630.648 516.41c0-8.855-7.179-16.034-16.034-16.034s-16.034 7.179-16.034 16.034c0 8.855 7.179 16.034 16.034 16.034s16.034-7.179 16.034-16.034zM699.056 516.41c0-8.855-7.179-16.034-16.034-16.034s-16.034 7.179-16.034 16.034c0 8.855 7.179 16.034 16.034 16.034s16.034-7.179 16.034-16.034zM630.648 379.59c0-8.855-7.179-16.034-16.034-16.034s-16.034 7.179-16.034 16.034c0 8.855 7.179 16.034 16.034 16.034s16.034-7.179 16.034-16.034zM699.056 379.59c0-8.855-7.179-16.034-16.034-16.034s-16.034 7.179-16.034 16.034c0 8.855 7.179 16.034 16.034 16.034s16.034-7.179 16.034-16.034z" />
<glyph unicode="&#xe930;" glyph-name="trash" d="M809.054 837.316h-159.394c-7.951 68.948-66.613 122.684-137.661 122.684-71.045 0-129.699-53.733-137.65-122.684h-159.402c-64.506 0-116.978-52.487-116.978-116.991v-6.003c0-49.293 30.693-91.484 73.93-108.675v-552.657c0-64.506 52.479-116.991 116.98-116.991h446.245c64.503 0 116.978 52.49 116.978 116.991v552.655c43.235 17.193 73.93 59.384 73.93 108.675v6.003c0 64.506-52.477 116.993-116.978 116.993zM511.999 904.518c40.408 0 74.136-28.963 81.599-67.201h-163.183c7.461 38.241 41.191 67.201 81.584 67.201zM796.619 52.991c0-33.915-27.594-61.511-61.498-61.511h-446.245c-33.904 0-61.498 27.598-61.498 61.511v544.341h569.241v-544.341zM870.549 714.323c0-33.915-27.594-61.511-61.498-61.511h-594.105c-33.904 0-61.498 27.596-61.498 61.511v6.003c0 33.915 27.594 61.511 61.498 61.511h594.107c33.904 0 61.498-27.596 61.498-61.511v-6.003zM363.269 62.434c15.321 0 27.74 12.424 27.74 27.738v312.348c0 15.317-12.421 27.742-27.74 27.742s-27.74-12.426-27.74-27.742v-312.348c-0.002-15.319 12.419-27.738 27.74-27.738zM511.999 62.434c15.321 0 27.742 12.424 27.742 27.738v312.348c0 15.317-12.426 27.742-27.742 27.742-15.319 0-27.74-12.426-27.74-27.742v-312.348c0-15.319 12.419-27.738 27.74-27.738zM660.729 62.434c15.319 0 27.738 12.424 27.738 27.738v312.348c0 15.317-12.421 27.742-27.738 27.742-15.323 0-27.742-12.426-27.742-27.742v-312.348c-0.002-15.319 12.424-27.738 27.742-27.738z" />
<glyph unicode="&#xe931;" glyph-name="travel" d="M1004.402 356.12l-172.616 152.21v115.85c0 8.364-6.782 15.146-15.146 15.146h-86.98c-8.364 0-15.146-6.782-15.146-15.146v-12.444l-105.706 93.208v88.038c0 47.274-11.108 90.16-33.018 127.468-13.416 22.842-37.246 36.476-63.762 36.476-0.012 0-0.028 0-0.038 0-26.524-0.012-50.356-13.668-63.75-36.528-21.852-37.296-32.934-80.164-32.934-127.416v-87.938l-105.816-93.306v12.442c0 8.364-6.782 15.146-15.146 15.146h-86.984c-8.364 0-15.146-6.78-15.146-15.146v-115.85l-172.614-152.21c-24.818-21.884-23.282-52.146-10.756-72.428 9.366-15.162 26.464-27.326 47.316-27.324 7.044 0 14.516 1.39 22.264 4.518l74.080 29.93c7.754 3.134 11.502 11.96 8.368 19.714-3.134 7.756-11.96 11.502-19.714 8.368l-74.080-29.93c-15.296-6.18-27.042 1.87-32.46 10.64s-7.354 22.884 5.016 33.79l375.674 331.26v-234.994l-213.38-86.21c-7.754-3.134-11.502-11.96-8.368-19.714s11.96-11.502 19.714-8.368l202.030 81.628v-168.368c0-20.378 2.15-40.642 6.288-60.45l-102.138-102.138c-10.476-10.476-12.802-25.754-5.926-38.922 5.898-11.296 16.948-17.922 29.228-17.922 2.034 0 4.102 0.182 6.186 0.556l132.752 24.28c4.092-5.008 9.324-8.9 15.216-11.356v-67.824c0-8.294 6.392-15.524 14.68-15.774 8.576-0.256 15.61 6.62 15.61 15.138v68.55c5.814 2.468 10.98 6.332 15.020 11.28l132.896-24.308c2.068-0.37 4.124-0.552 6.146-0.552 12.248 0 23.308 6.628 29.208 17.928 6.874 13.168 4.548 28.446-5.928 38.922l-102.086 102.086c4.176 19.852 6.348 40.132 6.348 60.5v78.482c0 8.364-6.78 15.146-15.146 15.146-8.364 0-15.146-6.78-15.146-15.146v-78.482c0-45.172-11.708-89.908-33.872-129.404l-17.444-31.224v87.682c0 8.294-6.392 15.524-14.68 15.774-8.576 0.256-15.61-6.62-15.61-15.14v-88.65l-17.6 31.584c-22.058 39.302-33.714 84.040-33.714 129.376v564.358c0 41.796 9.682 79.514 28.776 112.102 7.904 13.488 21.972 21.542 37.632 21.55 0.008 0 0.014 0 0.022 0 15.658 0 29.73-8.046 37.646-21.524 19.142-32.594 28.846-70.32 28.846-112.128v-415.19c0-8.364 6.78-15.146 15.146-15.146 8.364 0 15.146 6.78 15.146 15.146v19.164l336.77-136.066c7.748-3.13 15.218-4.52 22.264-4.52 20.848 0 37.95 12.164 47.316 27.324 12.528 20.28 14.064 50.542-10.754 72.426zM279.198 585.028l-56.692-49.99v73.994h56.692v-24.004zM571.072 84.428c8.972 15.988 16.382 32.756 22.214 50.036l89.836-89.838c0.416-0.416 1.522-1.522 0.496-3.488-1.026-1.964-2.584-1.682-3.112-1.59l-122.036 22.322 12.602 22.558zM452.874 84.468l12.596-22.606-121.92-22.3c-0.586-0.1-2.146-0.388-3.17 1.58-1.028 1.964 0.078 3.072 0.494 3.486l89.846 89.844c5.812-17.298 13.206-34.056 22.154-50.004zM744.802 609.032h56.69v-73.994l-56.69 49.988v24.006zM989.386 299.61c-5.418-8.77-17.17-16.818-32.46-10.64l-348.12 140.652v234.94l375.564-331.162c12.37-10.908 10.434-25.020 5.016-33.79zM557.014 846.47c-24.792 24.79-65.126 24.79-89.92 0-5.914-5.914-5.914-15.504 0-21.416 5.916-5.914 15.504-5.914 21.42 0 12.98 12.98 34.1 12.98 47.078 0 2.958-2.956 6.836-4.436 10.71-4.436 3.876 0 7.752 1.478 10.71 4.436 5.916 5.914 5.916 15.504 0.002 21.416z" />
<glyph unicode="&#xe932;" glyph-name="twitter" d="M1018.134 771.245c-5.213 5.213-13.904 6.952-20.858 5.213l-34.761-12.167c20.858 24.333 34.761 50.404 43.452 74.736 3.477 8.69 1.738 15.642-3.477 20.858-5.213 5.213-13.904 6.952-20.858 3.477-48.665-20.858-90.379-38.238-125.14-48.665 0-1.738-1.738 0-3.477 0-27.81 15.642-95.594 50.404-144.259 50.404-123.404-1.738-222.473-106.023-222.473-232.902v-6.952c-180.759 34.761-279.828 86.904-387.59 199.879l-17.377 17.381-10.429-20.858c-59.094-112.975-17.381-215.521 50.404-285.044-31.285 5.213-52.142 15.642-71.261 31.285-6.952 5.213-15.642 6.952-24.333 1.738-6.952-3.477-10.429-13.904-8.69-22.594 24.333-81.688 85.165-147.736 151.211-187.711-31.285 0-57.356 3.477-83.427 20.858-6.952 3.477-17.381 3.477-24.333-1.738s-10.429-13.904-6.952-22.594c31.285-88.642 92.117-135.569 189.45-147.736-50.404-29.548-116.45-53.881-218.996-55.619-10.429 0-19.119-6.952-22.594-15.642-3.477-10.429 0-19.119 6.952-26.071 62.571-50.404 201.615-79.952 373.684-79.952 305.9 0 556.182 272.877 556.182 608.324v5.213c38.238 19.119 69.523 55.619 85.165 106.023 1.736 6.954-0.002 15.644-5.215 20.858zM913.849 672.176l-10.429-3.477v-29.548c0-316.328-234.64-573.563-521.42-573.563-158.165 0-264.186 26.071-321.542 53.881 119.927 8.69 189.45 46.929 243.33 88.642l43.452 31.285h-52.142c-99.069 0-159.902 27.81-194.663 93.856 31.285-10.429 64.308-10.429 100.808-8.69 13.904 1.738 27.81 1.738 41.713 1.738l5.213 34.761c-66.046 19.119-144.259 78.213-182.498 158.163 34.761-15.642 72.998-19.119 107.759-19.119h53.881l-43.45 31.287c-36.5 26.071-144.259 118.188-92.117 250.282 111.236-109.498 217.259-159.902 408.446-194.663l20.858-3.477v48.665c0 107.759 83.427 196.402 187.711 198.14 39.975 1.738 106.023-34.761 125.14-45.19 10.429-5.213 20.858-6.952 31.285-3.477 26.071 8.69 57.356 20.858 92.117 34.761-15.642-26.071-36.5-50.404-64.308-73-6.952-5.213-8.69-15.642-5.213-24.333s13.904-12.167 22.594-8.69l67.785 22.594c-12.167-22.592-31.287-48.663-64.31-60.829z" />
<glyph unicode="&#xe933;" glyph-name="up-arrow" d="M512 960c-282.321 0-512-229.679-512-512s229.679-512 512-512 512 229.679 512 512-229.679 512-512 512zM512-26.074c-261.404 0-474.074 212.67-474.074 474.074s212.67 474.074 474.074 474.074 474.074-212.67 474.074-474.074-212.67-474.074-474.074-474.074zM308.964 527.777l26.814-26.814 157.26 157.26v-466.223c0-10.487 8.495-18.963 18.963-18.963s18.963 8.476 18.963 18.963v466.223l157.26-157.26 26.814 26.814-203.036 203.036-203.036-203.036z" />
<glyph unicode="&#xe934;" glyph-name="wifi" d="M1018.536 603.368c-135.077 135.096-314.988 209.488-506.536 209.488s-371.44-74.374-506.536-209.488c-7.292-7.292-7.292-19.078 0-26.37s19.078-7.292 26.37 0c128.047 128.065 298.577 198.579 480.166 198.579s352.119-70.513 480.166-198.56c3.637-3.637 8.411-5.464 13.185-5.464s9.548 1.828 13.185 5.464c7.292 7.273 7.292 19.078 0 26.352zM115.085 493.766c-7.292-7.292-7.292-19.078 0-26.37 3.637-3.637 8.411-5.464 13.185-5.464s9.548 1.828 13.185 5.464c204.304 204.323 536.748 204.323 741.070 0 7.292-7.292 19.078-7.292 26.37 0s7.292 19.078 0 26.37c-218.832 218.832-574.942 218.869-793.811 0zM512 502.941c-108.633 0-210.645-42.204-287.275-118.815-7.292-7.292-7.292-19.078 0-26.37s19.078-7.292 26.37 0c69.581 69.562 162.231 107.887 260.905 107.887s191.324-38.324 260.905-107.887c3.637-3.637 8.411-5.464 13.185-5.464s9.548 1.828 13.185 5.464c7.292 7.292 7.292 19.078 0 26.37-76.612 76.612-178.642 118.815-287.275 118.815zM512 327.488c-67.362 0-122.172-54.811-122.172-122.191s54.811-122.191 122.172-122.191c67.38 0 122.191 54.811 122.191 122.191s-54.811 122.191-122.191 122.191zM512 120.424c-46.81 0-84.873 38.082-84.873 84.892s38.082 84.892 84.873 84.892 84.892-38.082 84.892-84.892-38.082-84.892-84.892-84.892z" />
<glyph unicode="&#xe935;" glyph-name="bar-chart" d="M976.798-24h-43.866v636.928c0 29.646-24.12 53.764-53.764 53.764h-98.048c-29.646 0-53.764-24.12-53.764-53.764v-636.928h-111.384v348.35c0 29.646-24.118 53.764-53.764 53.764h-98.048c-29.646 0-53.764-24.12-53.764-53.764v-348.35h-111.384v180.408c0 29.646-24.12 53.764-53.764 53.764h-98.050c-29.646 0-53.764-24.12-53.764-53.764v-180.408h-46.232c-11.046 0-20-8.954-20-20s8.954-20 20-20h929.596c11.046 0 20 8.954 20 20s-8.954 20-20 20zM259.008-24h-125.576v180.408c0 7.59 6.174 13.764 13.764 13.764h98.048c7.59 0 13.764-6.174 13.764-13.764v-180.408zM575.97-24h-125.576v348.35c0 7.59 6.174 13.764 13.764 13.764h98.048c7.588 0 13.764-6.174 13.764-13.764v-348.35zM892.932-24h-125.576v636.928c0 7.59 6.174 13.764 13.764 13.764h98.048c7.59 0 13.764-6.174 13.764-13.764v-636.928zM932.884 938.968c0.28 5.458-1.64 11.008-5.808 15.176s-9.718 6.090-15.176 5.808c-0.322 0.014-0.64 0.048-0.968 0.048h-121c-11.046 0-20-8.954-20-20s8.954-20 20-20h74.714l-197.714-197.716-74.56 74.56c-3.75 3.75-8.838 5.858-14.142 5.858s-10.392-2.108-14.142-5.858l-359.538-359.54c-7.81-7.81-7.81-20.474 0-28.286 3.906-3.902 9.024-5.854 14.142-5.854s10.238 1.952 14.142 5.858l345.396 345.398 74.56-74.56c7.81-7.81 20.474-7.81 28.286 0l211.856 211.854v-67.62c0-11.046 8.954-20 20-20s20 8.954 20 20v113.906c0 0.326-0.034 0.644-0.048 0.968zM171.28 353.38c0-11.046-8.954-20-20-20s-20 8.954-20 20c0 11.046 8.954 20 20 20s20-8.954 20-20z" />
<glyph unicode="&#xe936;" glyph-name="app" d="M414.354 960h-353.28c-33.682 0-61.074-27.392-61.074-61.074v-353.28c0-33.682 27.392-61.074 61.074-61.074h353.28c33.682 0 61.074 27.392 61.074 61.074v353.28c0 33.682-27.392 61.074-61.074 61.074zM438.857 545.646c0-13.513-10.99-24.503-24.503-24.503h-353.28c-13.513 0-24.503 10.99-24.503 24.503v353.28c0 13.513 10.99 24.503 24.503 24.503h353.28c13.513 0 24.503-10.99 24.503-24.503v-353.28zM962.926 960h-353.28c-33.682 0-61.074-27.392-61.074-61.074v-353.28c0-33.682 27.392-61.074 61.074-61.074h353.28c33.682 0 61.074 27.392 61.074 61.074v353.28c0 33.682-27.392 61.074-61.074 61.074zM987.429 545.646c0-13.513-10.99-24.503-24.503-24.503h-353.28c-13.513 0-24.503 10.99-24.503 24.503v353.28c0 13.513 10.99 24.503 24.503 24.503h353.28c13.513 0 24.503-10.99 24.503-24.503v-353.28zM414.354 411.429h-353.28c-33.682 0-61.074-27.392-61.074-61.074v-353.28c0-33.682 27.392-61.074 61.074-61.074h353.28c33.682 0 61.074 27.392 61.074 61.074v353.28c0 33.682-27.392 61.074-61.074 61.074zM438.857-2.926c0-13.513-10.99-24.503-24.503-24.503h-353.28c-13.513 0-24.503 10.99-24.503 24.503v353.28c0 13.513 10.99 24.503 24.503 24.503h353.28c13.513 0 24.503-10.99 24.503-24.503v-353.28zM1005.714 192h-201.143v201.143c0 10.112-8.174 18.286-18.286 18.286s-18.286-8.174-18.286-18.286v-201.143h-201.143c-10.112 0-18.286-8.174-18.286-18.286s8.174-18.286 18.286-18.286h201.143v-201.143c0-10.112 8.174-18.286 18.286-18.286s18.286 8.174 18.286 18.286v201.143h201.143c10.112 0 18.286 8.174 18.286 18.286s-8.174 18.286-18.286 18.286z" />
<glyph unicode="&#xe937;" glyph-name="form" d="M687.342 847.781v48.094h-97.619c-7.040 36.485-39.215 64.125-77.724 64.125s-70.684-27.64-77.724-64.125h-97.619v-48.094h-192.376v-911.781h735.436v911.781h-192.376zM849.659-33.941h-675.319v851.663h162.317v-33.065h30.059v81.159h96.188v15.029c0 27.071 22.025 49.096 49.096 49.096s49.096-22.025 49.096-49.096v-15.029h96.188v-81.159h30.059v33.065h162.317v-851.663zM495.969 895.875h32.063v-30.059h-32.063v30.059zM208.407 0.125h607.186v783.53h-607.186v-783.53zM238.466 753.597h547.068v-723.413h-547.068v723.413zM463.91 687.468h256.497v-30.059h-256.497v30.059zM303.593 687.468h128.246v-30.059h-128.246v30.059zM608.194 607.311h112.213v-30.059h-112.213v30.059zM303.593 607.311h272.526v-30.059h-272.526v30.059zM399.779 527.155h320.628v-30.059h-320.628v30.059zM303.593 527.155h64.129v-30.059h-64.129v30.059zM544.057 446.998h176.35v-30.059h-176.35v30.059zM303.593 446.998h208.407v-30.059h-208.407v30.059zM640.257 366.841h80.151v-30.059h-80.151v30.059zM303.593 366.841h304.593v-30.059h-304.593v30.059zM447.881 286.685h272.526v-30.059h-272.526v30.059zM303.593 286.685h112.213v-30.059h-112.213v30.059zM576.121 206.528h144.286v-30.059h-144.286v30.059zM303.593 206.528h240.464v-30.059h-240.464v30.059zM399.779 126.372h320.628v-30.059h-320.628v30.059zM303.593 126.372h64.129v-30.059h-64.129v30.059z" />
<glyph unicode="&#xe938;" glyph-name="windows" d="M1024 730.483h-70.621v70.621h-70.621v70.621h-741.517v-70.621h-70.621v-70.621h-70.621v-564.966h70.621v-70.621h70.621v-70.621h741.517v70.621h70.621v70.621h70.621v564.966zM35.31 200.828v494.345h35.31v-494.345h-35.31zM105.931 130.207v635.586h35.31v-635.586h-35.31zM847.448 59.586h-670.897v776.828h670.897v-776.828zM918.069 130.207h-35.31v635.586h35.31v-635.586zM988.69 200.828h-35.31v494.345h35.31v-494.345z" />
<glyph unicode="&#xe939;" glyph-name="skype" d="M993.28 359.254c5.12 29.014 8.534 58.026 8.534 87.040 0 267.946-218.454 486.4-486.4 486.4-29.014 0-58.026-3.414-87.040-8.534-42.668 23.894-90.454 35.84-139.948 35.84-158.72 0-288.426-129.706-288.426-288.426 0-47.786 11.946-97.28 35.84-139.946-5.12-29.014-8.534-58.026-8.534-87.040 0-267.946 218.454-486.4 486.4-486.4 29.014 0 58.026 3.414 87.040 8.534 37.546-20.48 83.626-30.72 139.946-30.72 158.722-0.002 283.308 124.584 283.308 283.304 0 56.32-10.24 102.4-30.72 139.948zM740.694-29.866c-52.906 0-93.866 10.24-128 29.014l-5.12 3.414-6.826-1.706c-29.014-5.12-58.026-8.534-87.040-8.534-249.174 0-452.266 203.094-452.266 452.266 0 29.014 3.414 58.026 8.534 87.040l1.706 6.826-3.414 5.12c-22.186 39.254-34.134 83.626-34.134 128 0 139.946 114.346 254.294 254.294 254.294 44.374 0 88.746-11.946 128-34.134l5.12-3.414 6.826 1.706c29.014 5.12 58.026 8.534 87.040 8.534 249.174 0 452.266-203.094 452.266-452.266 0-29.014-3.414-58.026-8.534-87.040l-1.706-6.826 3.414-5.12c18.774-34.134 29.014-75.094 29.014-128-0.002-139.948-109.228-249.174-249.174-249.174zM556.374 529.92c-128 25.6-146.774 58.026-148.48 66.56-3.414 11.946 5.12 22.186 13.654 29.014 22.186 18.774 75.094 34.134 121.174 25.6 17.066-3.414 40.96-11.946 52.906-32.426 29.014-56.32 59.734-100.694 122.88-85.334 20.48 5.12 35.84 18.774 46.080 39.254 11.946 27.306 11.946 64.854-3.414 93.866-17.066 32.426-90.454 116.054-233.814 116.054-136.534 0-293.546-49.494-293.546-189.44 0-110.934 97.28-189.44 266.24-213.334 85.334-11.946 112.64-39.254 121.174-54.614 5.12-10.24 5.12-20.48 1.706-30.72-13.654-32.426-59.734-63.146-131.414-56.32-81.92 8.534-109.226 81.92-114.346 97.28-13.654 42.666-59.734 49.494-83.626 47.786-11.946-1.706-39.254-10.24-56.32-35.84-10.24-15.36-20.48-44.374-5.12-88.746 18.774-58.026 81.92-153.6 291.84-153.6 175.786 0 281.6 110.934 283.306 213.334 0 112.64-76.8 177.492-250.88 211.626zM522.24 139.094c-139.946 0-232.106 46.080-259.414 129.706-8.534 25.6-8.534 46.080 1.706 59.734s25.6 20.48 32.426 20.48c0 0 1.706 0 5.12 0 10.24 0 35.84-1.706 39.254-22.186 6.826-18.774 40.96-110.934 143.36-121.174 90.454-8.534 148.48 34.134 167.254 78.506 8.534 20.48 6.826 42.666-3.414 61.44-13.654 25.6-51.2 58.026-145.066 71.68-88.746 13.654-237.226 52.906-237.226 179.2 0 114.346 139.946 155.306 259.414 155.306 126.294 0 189.44-69.974 203.094-97.28 8.534-18.774 10.24-46.080 1.706-64.854-5.12-11.946-13.654-18.774-23.894-20.48-30.72-6.826-49.494 0-85.334 68.266-13.654 25.6-40.96 42.666-76.8 49.494-52.906 8.534-117.76-5.12-150.186-34.134-20.48-18.774-29.014-40.96-23.894-63.146 11.946-40.96 68.266-69.974 175.786-90.454 196.266-39.254 223.574-110.934 223.574-177.494 0-88.744-92.16-182.61-247.466-182.61z" />
<glyph unicode="&#xe93a;" glyph-name="menu-sidebar" d="M0 898.56h1024v-40.96h-1024v40.96zM0 611.84h1024v-40.96h-1024v40.96zM0 325.12h1024v-40.96h-1024v40.96zM0 38.4h1024v-40.96h-1024v40.96z" />
<glyph unicode="&#xe93b;" glyph-name="menu-after" d="M31.999 640h959.999c17.665 0 31.999 14.337 31.999 31.999 0 17.665-14.337 31.999-31.999 31.999h-959.999c-17.665 0-31.999-14.337-31.999-31.999s14.337-31.999 31.999-31.999zM991.998 479.999h-959.999c-17.665 0-31.999-14.337-31.999-31.999s14.337-31.999 31.999-31.999h959.999c17.665 0 31.999 14.337 31.999 31.999s-14.334 31.999-31.999 31.999zM991.998 256h-639.999c-17.665 0-31.999-14.337-31.999-31.999 0-17.665 14.337-31.999 31.999-31.999h639.999c17.665 0 31.999 14.337 31.999 31.999 0.003 17.665-14.334 31.999-31.999 31.999z" />
<glyph unicode="&#xe93c;" glyph-name="menu-before" d="M1002.666 768h-981.332c-11.776 0-21.334-9.558-21.334-21.334s9.558-21.334 21.334-21.334h981.334c11.776 0 21.334 9.558 21.334 21.334s-9.56 21.334-21.336 21.334zM1002.666 469.334h-981.332c-11.776 0-21.334-9.558-21.334-21.334s9.558-21.334 21.334-21.334h981.334c11.776 0 21.334 9.558 21.334 21.334s-9.56 21.334-21.336 21.334zM1002.666 170.666h-981.332c-11.776 0-21.334-9.556-21.334-21.332s9.558-21.334 21.334-21.334h981.334c11.776 0 21.334 9.558 21.334 21.334-0.002 11.776-9.56 21.332-21.336 21.332z" />
<glyph unicode="&#xe93d;" glyph-name="menu-befores" d="M38.642 699.17h946.717c21.33 0 38.642 17.311 38.642 38.642s-17.311 38.642-38.642 38.642h-946.717c-21.33 0-38.642-17.311-38.642-38.642s17.311-38.642 38.642-38.642zM38.642 409.358h946.717c21.33 0 38.642 17.311 38.642 38.642s-17.311 38.642-38.642 38.642h-946.717c-21.33 0-38.642-17.311-38.642-38.642s17.311-38.642 38.642-38.642zM38.642 119.547h946.717c21.33 0 38.642 17.311 38.642 38.642s-17.311 38.642-38.642 38.642h-946.717c-21.33 0-38.642-17.311-38.642-38.642s17.311-38.642 38.642-38.642z" />
</font>
</defs>
</svg>
